Билет в рай / Ticket to Paradise (2022) BDRip 720p от селезень | P | Jaskier

Ответить на тему
Статистика раздачи [Обновить пиров]
Размер:  4,68 GB   |    Зарегистрирован:  1 месяц 26 дней   |    .torrent скачан:  1 раз
Раздают:  124  [  0 KB/s  ]   Качают:  22  [  0 KB/s  ]   Подробная статистика пиров
   
 
Автор Сообщение

4udaki ®

Оффлайн

Медали


Пол: Мужской

Стаж: 8 лет 2 месяца

Наличие запрета:

Сообщений: 34651

Откуда: korsars.pro

Отдача: 2 Mb/s

Загрузка: 20 Mb/s



Скачать Adguard бесплатно

Создавать темы 01-Дек-2022 05:00

[Цитировать]

Информация о фильме
Название: Билет в рай
Оригинальное название: Ticket to Paradise
Год выпуска: 2022
Жанр: Мелодрама, комедия
Режиссер: Ол Паркер
В ролях: Джордж Клуни, Джулия Робертс, Кейтлин Девер, Максим Буттье, Билли Лурд, Лукас Браво, Шон Линч, Ариэль О’Нилл, Линг Хсю Тэнг, Чарльз Аллен
О фильме:
Разведённая пара вынуждена объединиться, чтобы поехать на Бали и помешать дочери Лили выйти замуж за местного парня. По их мнению, девушка совершает ту же ошибку, что и они 25 лет назад.

Выпущено: США, Universal Pictures, Working Title Films, Smokehouse Pictures
Продолжительность: 01:44:01
Перевод: Профессиональный (многоголосый, закадровый) | Jaskier
Субтитры: Английские
Файл
Формат: MKV
Качество: BDRip 720p
Видео: 1280x536, 23.976 fps, MPEG-4 AVC, ~5356 Kbps
Аудио 1: AC3, 6 ch, 448 Кбит/с - Профессиональный многоголосый (Jaskier)
Аудио 2: AC3, 6 ch, 640 Кбит/с - Английский
Формат субтитров: softsub (SRT)

M/I

General
Unique ID : 75817968328751283929226208701096494142 (0x390A02720B9E89FA3EBC00CD95B9843E)
Complete name : D:Ticket.to.Paradise.2022.BDRip.720p.seleZen.mkv
Format : Matroska
Format version : Version 4
File size : 4.68 GiB
Duration : 1 h 44 min
Overall bit rate : 6 446 kb/s
Movie name : Ticket to Paradise 2022 from seleZen
Encoded date : UTC 2022-11-30 14:47:57
Writing application : mkvmerge v59.0.0 ('Shining Star') 64-bit
Writing library : libebml v1.4.2 + libmatroska v1.6.4
Video
ID : 1
Format : AVC
Format/Info : Advanced Video Codec
Format profile : High@L4.1
Format settings : CABAC / 12 Ref Frames
Format settings, CABAC : Yes
Format settings, Reference : 12 frames
Codec ID : V_MPEG4/ISO/AVC
Duration : 1 h 44 min
Bit rate : 5 356 kb/s
Width : 1 280 pixels
Height : 536 pixels
Display aspect ratio : 2.40:1
Frame rate mode : Constant
Frame rate : 23.976 (24000/1001) FPS
Color space : YUV
Chroma subsampling : 4:2:0
Bit depth : 8 bits
Scan type : Progressive
Bits/(Pixel*Frame) : 0.326
Stream size : 3.89 GiB (83%)
Writing library : x264 core 164 r3085+55M seleZen t_mod_New [(8 & 10)-bit@all X86_64]
Encoding settings : cabac=1 / ref=12 / deblock=1:-2:-2 / analyse=0x3:0x133 / me=umh / subme=11 / psy=1 / fade_compensate=0.00 / psy_rd=1.03:0.01 / mixed_ref=1 / me_range=48 / chroma_me=1 / trellis=2 / 8x8dct=1 / cqm=0 / deadzone=21,11 / fast_pskip=0 / chroma_qp_offset=-3 / threads=17 / lookahead_threads=4 / sliced_threads=0 / nr=0 / decimate=0 / interlaced=0 / bluray_compat=0 / constrained_intra=0 / fgo=0 / bframes=10 / b_pyramid=2 / b_adapt=2 / b_bias=0 / direct=3 / weightb=1 / open_gop=0 / weightp=2 / keyint=240 / keyint_min=23 / scenecut=40 / intra_refresh=0 / rc_lookahead=60 / rc=2pass / mbtree=0 / bitrate=5356 / ratetol=1.0 / qcomp=0.60 / qpmin=0:0:0 / qpmax=51:51:51 / qpstep=4 / cplxblur=20.0 / qblur=0.5 / vbv_maxrate=50000 / vbv_bufsize=62500 / nal_hrd=none / filler=0 / ip_ratio=1.40 / pb_ratio=1.30 / aq=3:0.80 / aq-sensitivity=10.00 / aq-factor=1.00:1.00:1.00 / aq2=0 / aq3=0
Language : English
Default : Yes
Forced : No
Audio #1
ID : 2
Format : AC-3
Format/Info : Audio Coding 3
Commercial name : Dolby Digital
Codec ID : A_AC3
Duration : 1 h 44 min
Bit rate mode : Constant
Bit rate : 448 kb/s
Channel(s) : 6 channels
Channel layout : L R C LFE Ls Rs
Sampling rate : 48.0 kHz
Frame rate : 31.250 FPS (1536 SPF)
Compression mode : Lossy
Stream size : 333 MiB (7%)
Title : MVO [Jaskier]
Language : Russian
Service kind : Complete Main
Default : Yes
Forced : Yes
Audio #2
ID : 3
Format : AC-3
Format/Info : Audio Coding 3
Commercial name : Dolby Digital
Codec ID : A_AC3
Duration : 1 h 44 min
Bit rate mode : Constant
Bit rate : 640 kb/s
Channel(s) : 6 channels
Channel layout : L R C LFE Ls Rs
Sampling rate : 48.0 kHz
Frame rate : 31.250 FPS (1536 SPF)
Bit depth : 16 bits
Compression mode : Lossy
Stream size : 476 MiB (10%)
Title : Original
Language : English
Service kind : Complete Main
Default : No
Forced : No
Text #1
ID : 4
Format : UTF-8
Codec ID : S_TEXT/UTF8
Codec ID/Info : UTF-8 Plain Text
Duration : 19 min 22 s
Bit rate : 3 b/s
Count of elements : 16
Stream size : 448 Bytes (0%)
Title : Forced
Language : English
Default : No
Forced : No
Text #2
ID : 5
Format : UTF-8
Codec ID : S_TEXT/UTF8
Codec ID/Info : UTF-8 Plain Text
Duration : 1 h 38 min
Bit rate : 72 b/s
Count of elements : 1647
Stream size : 52.6 KiB (0%)
Title : Full
Language : English
Default : No
Forced : No
Text #3
ID : 6
Format : UTF-8
Codec ID : S_TEXT/UTF8
Codec ID/Info : UTF-8 Plain Text
Duration : 1 h 43 min
Bit rate : 81 b/s
Count of elements : 2165
Stream size : 61.6 KiB (0%)
Title : SDH
Language : English
Default : No
Forced : No
Menu
00:00:00.000 : Chapter 01
00:07:12.640 : Chapter 02
00:13:54.833 : Chapter 03
00:19:13.277 : Chapter 04
00:23:44.673 : Chapter 05
00:31:39.564 : Chapter 06
00:36:49.498 : Chapter 07
00:40:25.756 : Chapter 08
00:43:05.833 : Chapter 09
00:46:51.308 : Chapter 10
00:50:38.326 : Chapter 11
00:55:08.805 : Chapter 12
00:58:03.146 : Chapter 13
01:05:08.487 : Chapter 14
01:09:40.718 : Chapter 15
01:14:56.450 : Chapter 16
01:21:05.026 : Chapter 17
01:24:07.709 : Chapter 18
01:33:20.386 : Chapter 19
01:37:16.664 : Chapter 20
Релиз: Присоединяйся к: Кликай на баннеры.
AdGuard VPN - бесплатный, надёжный и быстрый VPN
[korsars.pro].t73779.torrent 
Торрент: Зарегистрирован [ 2022-12-01 05:00 ] · 1AA8196B3A6858C21071E4044AFA1CDD3409015E

Скачать .torrent

Размер .torrent файла 95 KB

Статус: проверено
.torrent скачан: 1 раз
Размер: 4,68 GB
Правила
AdGuard VPN - бесплатный, надёжный и быстрый VPN
Похожие темы

Вы не зарегистрированы на нашем сайте. Вам доступна для скачивания только часть контента. Чтобы увидеть весь контент сайта, пожалуйста, зарегистрироруйтесь.

Дешевый и быстрый Сидбокс

Ключи и пин-коды

Игры, Кредитные карты, IP-телефония, Интернет провайдеры, Мобильная связь, Спутниковое ТВ

Электронные книги

Бизнес и экономика, Дом, быт, семья, досуг, Санкт-Петербург, Компьютеры и интернет, Наука и образование, Техническая литература, Юридическая литература

Цифровые товары

iTunes & App Store, Базы данных, Дизайн, Доступ к ресурсам, Kарты продления, ключи, Фотографии, Шаблоны для сайтов

Программное обеспечение

Безопасность, Игры, PC, Интернет, Мобильная связь, Программирование, Продвижение сайтов (SEO), Утилиты
У Вас отключен VIP статус, поэтому Вам показывается реклама на сайте. Вы можете поддержать наш ресурс и приобрести VIP статус, тем самым отключив показ рекламы на сайте, а ещё VIP пользователи получают возможность

смотреть аниме онлайн в HD качестве

(не распространяется на раздел Flarrow Films), а так же получить 5 инвайтов, которыми можно поделиться с друзьями или знакомыми.
Дешевый и быстрый Сидбокс

Ключи и пин-коды

Игры, Кредитные карты, IP-телефония, Интернет провайдеры, Мобильная связь, Спутниковое ТВ

Электронные книги

Бизнес и экономика, Дом, быт, семья, досуг, Санкт-Петербург, Компьютеры и интернет, Наука и образование, Техническая литература, Юридическая литература

Цифровые товары

iTunes & App Store, Базы данных, Дизайн, Доступ к ресурсам, Kарты продления, ключи, Фотографии, Шаблоны для сайтов

Программное обеспечение

Безопасность, Игры, PC, Интернет, Мобильная связь, Программирование, Продвижение сайтов (SEO), Утилиты
[Профиль] [ЛС]
Показать сообщения:    
Ответить на тему

Текущее время: 28-Янв 01:10

Часовой пояс: UTC + 4



Вы не можете начинать темы
Вы не можете отвечать на сообщения
Вы не можете редактировать свои сообщения
Вы не можете удалять свои сообщения
Вы не можете голосовать в опросах
Вы не можете прикреплять файлы к сообщениям
Вы можете скачивать файлы
Анализ сайта korsars.pro Яндекс.Метрика