Marvel's. Полуночные солнца / Marvel's Midnight Suns [S01] (2022) WEBRip 1080p | Flarrow Films

Ответить на тему
Статистика раздачи [Обновить пиров]
Размер:  789 MB   |    Зарегистрирован:  1 месяц 25 дней   |    .torrent скачан:  16 раз
Раздают:  79  [  0 KB/s  ]   Качают:  7  [  0 KB/s  ]   Подробная статистика пиров
   
 
Автор Сообщение

flarrowfilms ®

Оффлайн

Медали
VIPДруг трекераСупер Мега Контер Квейк


Пол: Не указан

Стаж: 2 года 10 месяцев

Наличие запрета:

Сообщений: 141

Отдача: 5 Mb/s

Загрузка: 5 Mb/s



Скачать Adguard бесплатно

Создавать темы 23-Ноя-2022 12:33

[Цитировать]

Информация о фильме
Название: Marvel's. Полуночные солнца
Оригинальное название: Marvel's Midnight Suns
Год выхода: 2022
Жанр: мультфильм, фэнтези, боевик, драма, приключения
Режиссер: Чад Рокко, Джейкоб Соломон
В ролях: Майкл Джей Уайт, Нолан Норт, Юрий Левенталь, Лирика Окано, Рик Паскуалоне, Ринабет Апостол, Томми Бек
О фильме:
Короткометражки-приквелы рассказывают, как Лилит стала Матерью демонов и как такие супергерои, как Блэйд, Мэджик, Призрачный гонщик и Нико Минору, объединились, чтобы сформировать ядро Полуночных солнц.

Страна: США
Продолжительность: 00:08:07
Перевод: Профессиональный (многоголосый, закадровый) | Flarrow Films
Роли озвучивали: Антонина Лазаревская, Виталий Кашеваров, Алина Лихачева, Лена Лунина, Андрей Лысенко, Рина Чернышова, Ахилл Намазов и Дмитрий Мальков.
Файл
Формат: MKV
Кодек: MPEG-4 AVC
Качество: WEBRip 1080p
Видео: 1920х1080, ~ 2 426 kb/s, 24.000 FPS, 8 bits
Аудио: AC-3, 192 kb/s, 2 channels, 48.0 kHz
Субтитры: русские (отключаемые UTF-8)-

MediaInfo

General
Unique ID : 128718218323272582464352344847769747953 (0x60D63A239952F731782AFE177EC141F1)
Complete name : C:\Flarrow\Marvels.Midnight.Suns.S01.1080p.Flarrow.Films\Marvels.Midnight.Suns.S01E01.mkv
Format : Matroska
Format version : Version 4
File size : 152 MiB
Duration : 8 min 7 s
Overall bit rate : 2 620 kb/s
Encoded date : UTC 2022-11-16 16:35:49
Writing application : mkvmerge v32.0.0 ('Astral Progressions') 64-bit
Writing library : libebml v1.3.7 + libmatroska v1.5.0
Video
ID : 1
Format : AVC
Format/Info : Advanced Video Codec
Format profile : High@L4
Format settings : CABAC / 3 Ref Frames
Format settings, CABAC : Yes
Format settings, Reference : 3 frames
Codec ID : V_MPEG4/ISO/AVC
Duration : 8 min 7 s
Bit rate : 2 426 kb/s
Width : 1 920 pixels
Height : 1 080 pixels
Display aspect ratio : 16:9
Frame rate mode : Constant
Frame rate : 24.000 FPS
Color space : YUV
Chroma subsampling : 4:2:0
Bit depth : 8 bits
Scan type : Progressive
Bits/(Pixel*Frame) : 0.049
Stream size : 141 MiB (93%)
Default : Yes
Forced : No
Color range : Limited
Color primaries : BT.709
Transfer characteristics : BT.709
Matrix coefficients : BT.709
Audio
ID : 2
Format : AC-3
Format/Info : Audio Coding 3
Commercial name : Dolby Digital
Codec ID : A_AC3
Duration : 8 min 7 s
Bit rate mode : Constant
Bit rate : 192 kb/s
Channel(s) : 2 channels
Channel layout : L R
Sampling rate : 48.0 kHz
Frame rate : 31.250 FPS (1536 SPF)
Compression mode : Lossy
Stream size : 11.2 MiB (7%)
Service kind : Complete Main
Default : Yes
Forced : No
Text
ID : 3
Format : UTF-8
Codec ID : S_TEXT/UTF8
Codec ID/Info : UTF-8 Plain Text
Duration : 7 min 2 s
Bit rate : 83 b/s
Count of elements : 75
Stream size : 4.28 KiB (0%)
Default : Yes
Forced : No
--Релиз от: Flarrow Films
Примечание: Релиз без рекламы- -
AdGuard VPN - бесплатный, надёжный и быстрый VPN
[korsars.pro].t73362.torrent 
Торрент: Зарегистрирован [ 2022-12-02 13:14 ] · 5AB4A4C970DC0509A75B07E7691B45A92BF648FC

Скачать .torrent

Размер .torrent файла 16 KB

Статус: проверено
.torrent скачан: 16 раз
Размер: 789 MB
Правила
4udaki(23-Ноя-22)
AdGuard VPN - бесплатный, надёжный и быстрый VPN
Похожие темы

Вы не зарегистрированы на нашем сайте. Вам доступна для скачивания только часть контента. Чтобы увидеть весь контент сайта, пожалуйста, зарегистрироруйтесь.

Дешевый и быстрый Сидбокс

Ключи и пин-коды

Игры, Кредитные карты, IP-телефония, Интернет провайдеры, Мобильная связь, Спутниковое ТВ

Электронные книги

Бизнес и экономика, Дом, быт, семья, досуг, Санкт-Петербург, Компьютеры и интернет, Наука и образование, Техническая литература, Юридическая литература

Цифровые товары

iTunes & App Store, Базы данных, Дизайн, Доступ к ресурсам, Kарты продления, ключи, Фотографии, Шаблоны для сайтов

Программное обеспечение

Безопасность, Игры, PC, Интернет, Мобильная связь, Программирование, Продвижение сайтов (SEO), Утилиты
У Вас отключен VIP статус, поэтому Вам показывается реклама на сайте. Вы можете поддержать наш ресурс и приобрести VIP статус, тем самым отключив показ рекламы на сайте, а ещё VIP пользователи получают возможность

смотреть аниме онлайн в HD качестве

(не распространяется на раздел Flarrow Films), а так же получить 5 инвайтов, которыми можно поделиться с друзьями или знакомыми.
Дешевый и быстрый Сидбокс

Ключи и пин-коды

Игры, Кредитные карты, IP-телефония, Интернет провайдеры, Мобильная связь, Спутниковое ТВ

Электронные книги

Бизнес и экономика, Дом, быт, семья, досуг, Санкт-Петербург, Компьютеры и интернет, Наука и образование, Техническая литература, Юридическая литература

Цифровые товары

iTunes & App Store, Базы данных, Дизайн, Доступ к ресурсам, Kарты продления, ключи, Фотографии, Шаблоны для сайтов

Программное обеспечение

Безопасность, Игры, PC, Интернет, Мобильная связь, Программирование, Продвижение сайтов (SEO), Утилиты
[Профиль] [ЛС]
Показать сообщения:    
Ответить на тему

Текущее время: 28-Янв 01:26

Часовой пояс: UTC + 4



Вы не можете начинать темы
Вы не можете отвечать на сообщения
Вы не можете редактировать свои сообщения
Вы не можете удалять свои сообщения
Вы не можете голосовать в опросах
Вы не можете прикреплять файлы к сообщениям
Вы можете скачивать файлы
Анализ сайта korsars.pro Яндекс.Метрика