Видеть / See [S03] (2022) WEB-DLRip-AVC | КПК | HDrezka Studio

Ответить на тему
Статистика раздачи [Обновить пиров]
Размер:  1,97 GB   |    Зарегистрирован:  3 месяца 13 дней   |    .torrent скачан:  3 раза
Раздают:  28  [  0 KB/s  ]   Качают:  13  [  0 KB/s  ]   Подробная статистика пиров
   
 
Автор Сообщение

4udaki ®

Оффлайн

Медали


Пол: Мужской

Стаж: 8 лет 2 месяца

Наличие запрета:

Сообщений: 34942

Откуда: korsars.pro

Отдача: 2 Mb/s

Загрузка: 20 Mb/s



Скачать Adguard бесплатно

Создавать темы 18-Окт-2022 09:00

[Цитировать]


Информация о фильме
Название: Видеть
Оригинальное название: See
Год выхода: 2022
Жанр: фантастика, боевик, драма
Режиссер: Френсис Лоуренс, Андерс Энгстрем, Фред Туа, Стивен Серджик
В ролях: Джейсон Момоа, Сильвия Хукс, Хера Хильмар, Кристиан Камарго, Арчи Мадекве, Неста Купер, Элфри Вудард, Джош Блэкер, Кристиан Слоун, Ядира Гевара-Прип, Иден Эпштейн, Оливия Ченг
О фильме:
В далёком будущем человеческая раса полностью лишилась зрения. Чтобы выжить, людям пришлось найти новый способ сосуществовать, строить и добывать пищу. Всё меняется, когда в семье бесстрашного воина Бабы Восса рождаются зрячие близнецы. Их появление рискует нарушить хрупкий баланс нового мира и ввергнуть успокоившуюся цивилизацию в хаос.

Страна: США
Студия: Chernin Entertainment, Endeavor Content
Продолжительность: 8 x ~00:58:00
Перевод: Профессиональный (многоголосый, закадровый) | HDrezka Studio
Файл
Формат: MP4
Качество: WEB-DLRip 360p (исх. WEB-DL 720p | RGzs) *
Видео: AVC, 640x304 at 23.976 fps, 468-729 kbps
Аудио: AAC LC SBR, 48.0 kHz, 2 ch, 72 kbps
Субтитры: Русские (Forced, Full), Английские (SDH)
* спасибо kogesan за исходный материал

MediaInfo

General
Complete name : See.S03.2022.HDrS/See.S03E08.HDrS.WEB-DLRip.mp4
Format : MPEG-4
Format profile : Base Media
Codec ID : isom (isom)
File size : 324 MiB
Duration : 1 h 0 min
Overall bit rate mode : Variable
Overall bit rate : 754 kb/s
Encoded date : UTC 2022-10-16 17:21:05
Tagged date : UTC 2022-10-16 17:21:05
Video
ID : 1
Format : AVC
Format/Info : Advanced Video Codec
Format profile : High@L4.1
Format settings : CABAC / 15 Ref Frames
Format settings, CABAC : Yes
Format settings, RefFrames : 15 frames
Codec ID : avc1
Codec ID/Info : Advanced Video Coding
Duration : 1 h 0 min
Bit rate : 679 kb/s
Maximum bit rate : 3 409 kb/s
Width : 640 pixels
Height : 304 pixels
Display aspect ratio : 2.109
Frame rate mode : Constant
Frame rate : 23.976 (24000/1001) FPS
Color space : YUV
Chroma subsampling : 4:2:0
Bit depth : 8 bits
Scan type : Progressive
Bits/(Pixel*Frame) : 0.145
Stream size : 292 MiB (90%)
Title : I See You
Writing library : x264 core 133 r2334 a3ac64b
Encoding settings : cabac=1 / ref=15 / deblock=1:0:0 / analyse=0x3:0x133 / me=umh / subme=10 / psy=1 / psy_rd=1.00:0.00 / mixed_ref=1 / me_range=32 / chroma_me=1 / trellis=2 / 8x8dct=1 / cqm=0 / deadzone=21,11 / fast_pskip=0 / chroma_qp_offset=-2 / threads=6 / lookahead_threads=1 / sliced_threads=0 / nr=0 / decimate=1 / interlaced=0 / bluray_compat=0 / constrained_intra=0 / bframes=13 / b_pyramid=2 / b_adapt=2 / b_bias=0 / direct=3 / weightb=1 / open_gop=0 / weightp=2 / keyint=240 / keyint_min=23 / scenecut=40 / intra_refresh=0 / rc=crf / mbtree=0 / crf=18.0 / qcomp=0.60 / qpmin=0 / qpmax=69 / qpstep=4 / ip_ratio=1.40 / pb_ratio=1.25 / aq=2:1.00
Language : English
Encoded date : UTC 2022-10-17 14:40:20
Tagged date : UTC 2022-10-16 17:21:16
Color range : Limited
Color primaries : BT.709
Transfer characteristics : BT.709
Matrix coefficients : BT.709
Codec configuration box : avcC
Audio
ID : 2
Format : AAC LC SBR
Format/Info : Advanced Audio Codec Low Complexity with Spectral Band Replication
Commercial name : HE-AAC
Format settings : Explicit
Codec ID : mp4a-40-2
Duration : 1 h 0 min
Bit rate mode : Variable
Bit rate : 72.0 kb/s
Maximum bit rate : 268 kb/s
Channel(s) : 2 channels
Channel layout : L R
Sampling rate : 48.0 kHz
Frame rate : 23.438 FPS (2048 SPF)
Compression mode : Lossy
Stream size : 30.9 MiB (10%)
Title : MVO - HDrezka Studio
Language : Russian
Encoded date : UTC 2022-10-16 17:21:15
Tagged date : UTC 2022-10-16 17:21:16
Text #1
ID : 3
Format : Timed Text
Codec ID : tx3g
Duration : 20 min 53 s
Bit rate mode : Variable
Bit rate : 10 b/s
Stream size : 1.51 KiB (0%)
Title : Forced
Language : Russian
Forced : No
Encoded date : UTC 2022-10-16 17:21:16
Tagged date : UTC 2022-10-16 17:21:16
Text #2
ID : 4
Format : Timed Text
Codec ID : tx3g
Duration : 1 h 0 min
Bit rate mode : Variable
Bit rate : 61 b/s
Stream size : 26.6 KiB (0%)
Title : Full
Language : Russian
Forced : No
Encoded date : UTC 2022-10-16 17:21:16
Tagged date : UTC 2022-10-16 17:21:16
Text #3
ID : 5
Format : Timed Text
Codec ID : tx3g
Duration : 58 min 16 s
Bit rate mode : Variable
Bit rate : 53 b/s
Stream size : 22.5 KiB (0%)
Title : SDH
Language : English
Forced : No
Encoded date : UTC 2022-10-16 17:21:16
Tagged date : UTC 2022-10-16 17:21:16

Скриншоты

AdGuard VPN - бесплатный, надёжный и быстрый VPN
[korsars.pro].t70894.torrent 
Торрент: Зарегистрирован [ 2022-10-18 09:00 ] · A076F5E20587E0EA937617DBC8B1EE04B080CD33

Скачать .torrent

Размер .torrent файла 41 KB

Статус: проверено
.torrent скачан: 3 раз
Размер: 1,97 GB
Правила
AdGuard VPN - бесплатный, надёжный и быстрый VPN
Похожие темы

Вы не зарегистрированы на нашем сайте. Вам доступна для скачивания только часть контента. Чтобы увидеть весь контент сайта, пожалуйста, зарегистрироруйтесь.

Дешевый и быстрый Сидбокс

Ключи и пин-коды

Игры, Кредитные карты, IP-телефония, Интернет провайдеры, Мобильная связь, Спутниковое ТВ

Электронные книги

Бизнес и экономика, Дом, быт, семья, досуг, Санкт-Петербург, Компьютеры и интернет, Наука и образование, Техническая литература, Юридическая литература

Цифровые товары

iTunes & App Store, Базы данных, Дизайн, Доступ к ресурсам, Kарты продления, ключи, Фотографии, Шаблоны для сайтов

Программное обеспечение

Безопасность, Игры, PC, Интернет, Мобильная связь, Программирование, Продвижение сайтов (SEO), Утилиты
У Вас отключен VIP статус, поэтому Вам показывается реклама на сайте. Вы можете поддержать наш ресурс и приобрести VIP статус, тем самым отключив показ рекламы на сайте, а ещё VIP пользователи получают возможность

смотреть аниме онлайн в HD качестве

(не распространяется на раздел Flarrow Films), а так же получить 5 инвайтов, которыми можно поделиться с друзьями или знакомыми.
Дешевый и быстрый Сидбокс

Ключи и пин-коды

Игры, Кредитные карты, IP-телефония, Интернет провайдеры, Мобильная связь, Спутниковое ТВ

Электронные книги

Бизнес и экономика, Дом, быт, семья, досуг, Санкт-Петербург, Компьютеры и интернет, Наука и образование, Техническая литература, Юридическая литература

Цифровые товары

iTunes & App Store, Базы данных, Дизайн, Доступ к ресурсам, Kарты продления, ключи, Фотографии, Шаблоны для сайтов

Программное обеспечение

Безопасность, Игры, PC, Интернет, Мобильная связь, Программирование, Продвижение сайтов (SEO), Утилиты
[Профиль] [ЛС]
Показать сообщения:    
Ответить на тему

Текущее время: 31-Янв 10:42

Часовой пояс: UTC + 4



Вы не можете начинать темы
Вы не можете отвечать на сообщения
Вы не можете редактировать свои сообщения
Вы не можете удалять свои сообщения
Вы не можете голосовать в опросах
Вы не можете прикреплять файлы к сообщениям
Вы можете скачивать файлы
Анализ сайта korsars.pro Яндекс.Метрика