Блич: Тысячелетняя кровавая война / Bleach: Sennen Kessen-hen [01x01-06 из 52] (2022) WEB-DL 1080 | Flarrow Films

Ответить на тему
Статистика раздачи [Обновить пиров]
Размер:  6,54 GB   |    Зарегистрирован:  2 месяца 7 дней   |    .torrent скачан:  195 раз
Раздают:  4  [  0 KB/s  ]   Подробная статистика пиров
   
 
Автор Сообщение

flarrowfilms ®

Оффлайн

Медали
VIPДруг трекераСупер Мега Контер Квейк


Пол: Не указан

Стаж: 2 года 10 месяцев

Наличие запрета:

Сообщений: 141

Отдача: 5 Mb/s

Загрузка: 5 Mb/s



Скачать Adguard бесплатно

Создавать темы 15-Окт-2022 18:42

[Цитировать]

Информация о фильме
Название: Блич: Тысячелетняя кровавая война
Оригинальное название: Bleach: Sennen Kessen-hen
Год выхода: 2022
Жанр: мультфильм, фэнтези, боевик, драма, приключения
Режиссер: Томохиса Тагути
В ролях: Масакадзу Морита, Фумико Орикаса, Юки Мацуока, Хироки Ясумото, Нориаки Сугияма, Кэнтаро Ито, Мицуаки Мадоно, Риэ Кугимия, Кацуюки Конъиси, Ватару Такаги
О фильме:
Старый могущественный враг всех шинигами вновь объявляет войну Обществу душ. И это не кто иной, как сами квинси, возглавляемые новым императором Ванденрейха, зовущим себя Яхве. И цель его ясна, как блеск клинка занпакто. Он хочет убить Короля душ, захватить трон и на руинах построить свою новую империю. Так пламя тысячелетней кровавой войны разгорается с новой силой, а грядущая битва потрясёт оба мира и изменит судьбы многих...

Страна: Япония
Продолжительность: 00:24:31
Перевод: Профессиональный (многоголосый, закадровый) | Flarrow Films
Роли озвучивали: Денис Кузьмичёв, Ахилл Намазов, Антон Алёхин, Андрей Маслов, Дмитрий Мальков, Рута Няттиева, Олег Лялюк, Виталий Кашеваров, Анастасия Скачкова, Евгений Леонов, Семён Евсиков и Алексей Щегорский.
Файл
Формат: MKV
Кодек: MPEG-4 AVC
Качество: WEB-DL 1080
Видео: 1920х1080, ~ 3 840 kb/s, 23.976 FPS, 8 bits
Аудио: AC-3, 192 kb/s, 2 channels, 48.0 kHz
Субтитры: русские (отключаемые UTF-8)-

MediaInfo

General
Unique ID : 88621861455869354853375522789859280022 (0x42ABF31D9B6F90E05AB770B695144496)
Complete name : C:\Flarrow\Bleach.Thousand.Year.Blood.War.S01E01.1080p.Flarrow.Films\Bleach - Thousand-Year Blood War - S01E01.mkv
Format : Matroska
Format version : Version 4
File size : 708 MiB
Duration : 24 min 31 s
Overall bit rate : 4 033 kb/s
Encoded date : UTC 2022-10-15 13:10:41
Writing application : mkvmerge v32.0.0 ('Astral Progressions') 64-bit
Writing library : libebml v1.3.7 + libmatroska v1.5.0
Video
ID : 1
Format : AVC
Format/Info : Advanced Video Codec
Format profile : High@L4
Format settings : CABAC / 4 Ref Frames
Format settings, CABAC : Yes
Format settings, Reference : 4 frames
Codec ID : V_MPEG4/ISO/AVC
Duration : 24 min 31 s
Bit rate : 3 840 kb/s
Width : 1 920 pixels
Height : 1 080 pixels
Display aspect ratio : 16:9
Frame rate mode : Constant
Frame rate : 23.976 (24000/1001) FPS
Color space : YUV
Chroma subsampling : 4:2:0
Bit depth : 8 bits
Scan type : Progressive
Bits/(Pixel*Frame) : 0.077
Stream size : 674 MiB (95%)
Default : Yes
Forced : No
Audio
ID : 2
Format : AC-3
Format/Info : Audio Coding 3
Commercial name : Dolby Digital
Codec ID : A_AC3
Duration : 24 min 31 s
Bit rate mode : Constant
Bit rate : 192 kb/s
Channel(s) : 2 channels
Channel layout : L R
Sampling rate : 48.0 kHz
Frame rate : 31.250 FPS (1536 SPF)
Compression mode : Lossy
Stream size : 33.7 MiB (5%)
Service kind : Complete Main
Default : Yes
Forced : No
Text
ID : 3
Format : UTF-8
Codec ID : S_TEXT/UTF8
Codec ID/Info : UTF-8 Plain Text
Duration : 24 min 2 s
Bit rate : 91 b/s
Count of elements : 292
Stream size : 16.2 KiB (0%)
Default : Yes
Forced : No
Menu
00:01:41.375 : en:Part 01
00:09:06.291 : en:Part 02
00:19:18.708 : en:Part 03
--Релиз от: Flarrow Films
Примечание: Релиз без рекламы-
AdGuard VPN - бесплатный, надёжный и быстрый VPN
[korsars.pro].t70794.torrent 
Торрент: Зарегистрирован [ 2022-11-20 20:08 ] · A8BF6D17C9431F92FE7F0CADA1326098480DF52A

Скачать .torrent

Размер .torrent файла 17 KB

Статус: проверено
.torrent скачан: 195 раз
Размер: 6,54 GB
Правила
VLDeshka(15-Окт-22), 4udaki(17-Окт-22)
AdGuard VPN - бесплатный, надёжный и быстрый VPN
Похожие темы

Вы не зарегистрированы на нашем сайте. Вам доступна для скачивания только часть контента. Чтобы увидеть весь контент сайта, пожалуйста, зарегистрироруйтесь.

Дешевый и быстрый Сидбокс

Ключи и пин-коды

Игры, Кредитные карты, IP-телефония, Интернет провайдеры, Мобильная связь, Спутниковое ТВ

Электронные книги

Бизнес и экономика, Дом, быт, семья, досуг, Санкт-Петербург, Компьютеры и интернет, Наука и образование, Техническая литература, Юридическая литература

Цифровые товары

iTunes & App Store, Базы данных, Дизайн, Доступ к ресурсам, Kарты продления, ключи, Фотографии, Шаблоны для сайтов

Программное обеспечение

Безопасность, Игры, PC, Интернет, Мобильная связь, Программирование, Продвижение сайтов (SEO), Утилиты
У Вас отключен VIP статус, поэтому Вам показывается реклама на сайте. Вы можете поддержать наш ресурс и приобрести VIP статус, тем самым отключив показ рекламы на сайте, а ещё VIP пользователи получают возможность

смотреть аниме онлайн в HD качестве

(не распространяется на раздел Flarrow Films), а так же получить 5 инвайтов, которыми можно поделиться с друзьями или знакомыми.
Дешевый и быстрый Сидбокс

Ключи и пин-коды

Игры, Кредитные карты, IP-телефония, Интернет провайдеры, Мобильная связь, Спутниковое ТВ

Электронные книги

Бизнес и экономика, Дом, быт, семья, досуг, Санкт-Петербург, Компьютеры и интернет, Наука и образование, Техническая литература, Юридическая литература

Цифровые товары

iTunes & App Store, Базы данных, Дизайн, Доступ к ресурсам, Kарты продления, ключи, Фотографии, Шаблоны для сайтов

Программное обеспечение

Безопасность, Игры, PC, Интернет, Мобильная связь, Программирование, Продвижение сайтов (SEO), Утилиты
[Профиль] [ЛС]
Показать сообщения:    
Ответить на тему

Текущее время: 28-Янв 00:01

Часовой пояс: UTC + 4



Вы не можете начинать темы
Вы не можете отвечать на сообщения
Вы не можете редактировать свои сообщения
Вы не можете удалять свои сообщения
Вы не можете голосовать в опросах
Вы не можете прикреплять файлы к сообщениям
Вы можете скачивать файлы
Анализ сайта korsars.pro Яндекс.Метрика