Человек-бензопила / Chainsaw Man [01x01-07 из 12] (2022) WEBRip 1080p | D | Flarrow Films

Ответить на тему
Статистика раздачи [Обновить пиров]
Размер:  9,74 GB   |    Зарегистрирован:  6 дней   |    .torrent скачан:  472 раза
Раздают:  185  [  13 MB/s  ]   Качают:  221  [  11 MB/s  ]   Подробная статистика пиров
   
 
Автор Сообщение

flarrowfilms ®

Оффлайн

Медали
VIPДруг трекераСупер Мега Контер Квейк


Пол: Не указан

Стаж: 2 года 8 месяцев

Наличие запрета:

Сообщений: 135

Отдача: 5 Mb/s

Загрузка: 5 Mb/s



Скачать Adguard бесплатно

Создавать темы 14-Окт-2022 13:19

[Цитировать]

Информация о фильме
Название: Человек-бензопила
Оригинальное название: Chainsaw Man
Год выхода: 2022
Жанр: аниме, мультфильм, боевик, фэнтези, ужасы
Режиссер: Рю Накаяма, Масато Накадзоно, Тацуя Ёсихара
В ролях: Кикуносукэ Тоя, Томори Кусуноки, Аи Файруз, Сёго Саката, Таку Ясиро, Карин Такахаси, Мария Исэ, Кэндзиро Цуда, Сиори Идзава, Нацуки Ханаэ
Возрастное ограничение: 18+
О фильме:
У Дэндзи есть мечта — жить мирной и счастливой жизнью, проводя время с любимой девушкой. Однако суровая реальность в лице некоего якудзы заставляет парня вернуться с небес на землю, ведь он вынужден убивать демонов, чтобы расплатиться с необъятными долгами покойного отца. Вместе со своим дьявольским питомцем Почитой, которого использует в качестве оружия, Дэндзи готов сделать что угодно, даже за небольшую плату. Вскоре парень изжил свою полезность и был убит демоном, заключившим контракт с якудзой. Но верный Почита спасает своего хозяина, заключив с ним контракт. Почита стал одним целым с умирающим Дэндзи, заменив ему сердце, и подарил ему силы человека-бензопилы. Теперь переродившийся Дэндзи, получив умение превращать части своего тела в бензопилы, использует новообретённые способности, чтобы быстро и жестоко расправляться с врагами. Попав под внимание Бюро общественной безопасности, парень получает работу охотника на демонов. Отныне, не страшась даже самых жестоких противников, Дэндзи не остановится ни перед чем, чтобы воплотить в жизнь свои мечты.

Страна: Япония
Продолжительность: 00:25:25
Перевод: Дублированный | Flarrow Films
Роли озвучивали: Ислам Ганджаев, Егор Васильев, Татьяна Борзова, Вероника Нефедова, Александр Скиданов, Анна Мосолова, Георгий Кармрян, Анастасия Портная, Даниил Бледный и Данил Зимин.
Файл
Формат: MKV
Кодек: MPEG-4 AVC
Качество: WEBRip 1080p
Видео: 1920х1080, ~ 8 000 kb/s, 23.976, 8 bits
Аудио: AAC, 132 kb/s, 2 channels, 48.0 kHz
Сэмпл: скачать-

MediaInfo

General
Unique ID : 229801073450446568828607987743192277220 (0xACE213AD2A83B2A3B07DEA2D7D3460E4)
Complete name : C:\Flarrow\Chainsaw.Man.S01E01.2022.1080p.D.Flarrow.Films\Chainsaw.Man.S01E01.2022.1080p.Flarrow.Films.mkv
Format : Matroska
Format version : Version 4
File size : 1.43 GiB
Duration : 25 min 25 s
Overall bit rate : 8 062 kb/s
Encoded date : UTC 2022-10-14 07:42:42
Writing application : mkvmerge v32.0.0 ('Astral Progressions') 64-bit
Writing library : libebml v1.3.7 + libmatroska v1.5.0
Video
ID : 1
Format : AVC
Format/Info : Advanced Video Codec
Format profile : High@L4
Format settings : CABAC / 4 Ref Frames
Format settings, CABAC : Yes
Format settings, Reference : 4 frames
Format settings, GOP : N=1
Codec ID : V_MPEG4/ISO/AVC
Duration : 25 min 25 s
Bit rate : 8 000 kb/s
Width : 1 920 pixels
Height : 1 080 pixels
Display aspect ratio : 16:9
Frame rate mode : Constant
Frame rate : 23.976 (24000/1001) FPS
Color space : YUV
Chroma subsampling : 4:2:0
Bit depth : 8 bits
Scan type : Progressive
Bits/(Pixel*Frame) : 0.161
Stream size : 1.41 GiB (98%)
Writing library : x264 core 142
Encoding settings : cabac=1 / ref=4 / deblock=1:1:1 / analyse=0x3:0x113 / me=umh / subme=8 / psy=1 / psy_rd=0.40:0.00 / mixed_ref=1 / me_range=16 / chroma_me=1 / trellis=1 / 8x8dct=1 / cqm=0 / deadzone=21,11 / fast_pskip=1 / chroma_qp_offset=-2 / threads=12 / lookahead_threads=2 / sliced_threads=0 / nr=0 / decimate=1 / interlaced=0 / bluray_compat=0 / constrained_intra=0 / bframes=0 / weightp=2 / keyint=96 / keyint_min=48 / scenecut=40 / intra_refresh=0 / rc_lookahead=48 / rc=2pass / mbtree=1 / bitrate=8000 / ratetol=1.0 / qcomp=0.60 / qpmin=0 / qpmax=69 / qpstep=4 / cplxblur=20.0 / qblur=0.5 / vbv_maxrate=12000 / vbv_bufsize=18000 / nal_hrd=none / filler=0 / ip_ratio=1.40 / aq=1:0.60
Default : Yes
Forced : No
Audio
ID : 3
Format : AAC LC
Format/Info : Advanced Audio Codec Low Complexity
Codec ID : A_AAC-2
Duration : 25 min 25 s
Bit rate : 132 kb/s
Channel(s) : 2 channels
Channel layout : L R
Sampling rate : 48.0 kHz
Frame rate : 46.875 FPS (1024 SPF)
Compression mode : Lossy
Stream size : 23.9 MiB (2%)
Default : Yes
Forced : No
Text
ID : 2
Format : ASS
Codec ID : S_TEXT/ASS
Codec ID/Info : Advanced Sub Station Alpha
Duration : 23 min 0 s
Bit rate : 138 b/s
Count of elements : 217
Compression mode : Lossless
Stream size : 23.3 KiB (0%)
Title : Russian
Language : Russian
Default : No
Forced : No
--Релиз от: Flarrow Films
Примечание: Релиз без рекламы-
[korsars.pro].t70730.torrent 
Торрент: Зарегистрирован [ 2022-11-24 10:06 ] · 11D314B8ABEBC91506FDA676B45739D357E5A304

Скачать .torrent

Размер .torrent файла 25 KB

Статус: проверено
.torrent скачан: 472 раз
Размер: 9,74 GB
Правила
VLDeshka(14-Окт-22), 4udaki(14-Окт-22), ellolait(15-Окт-22), pfillipock(01-Ноя-22)
Похожие темы

Вы не зарегистрированы на нашем сайте. Вам доступна для скачивания только часть контента. Чтобы увидеть весь контент сайта, пожалуйста, зарегистрироруйтесь.

Дешевый и быстрый Сидбокс

Ключи и пин-коды

Игры, Кредитные карты, IP-телефония, Интернет провайдеры, Мобильная связь, Спутниковое ТВ

Электронные книги

Бизнес и экономика, Дом, быт, семья, досуг, Санкт-Петербург, Компьютеры и интернет, Наука и образование, Техническая литература, Юридическая литература

Цифровые товары

iTunes & App Store, Базы данных, Дизайн, Доступ к ресурсам, Kарты продления, ключи, Фотографии, Шаблоны для сайтов

Программное обеспечение

Безопасность, Игры, PC, Интернет, Мобильная связь, Программирование, Продвижение сайтов (SEO), Утилиты
У Вас отключен VIP статус, поэтому Вам показывается реклама на сайте. Вы можете поддержать наш ресурс и приобрести VIP статус, тем самым отключив показ рекламы на сайте, а ещё VIP пользователи получают возможность

смотреть аниме онлайн в HD качестве

(не распространяется на раздел Flarrow Films), а так же получить 5 инвайтов, которыми можно поделиться с друзьями или знакомыми.
Дешевый и быстрый Сидбокс

Ключи и пин-коды

Игры, Кредитные карты, IP-телефония, Интернет провайдеры, Мобильная связь, Спутниковое ТВ

Электронные книги

Бизнес и экономика, Дом, быт, семья, досуг, Санкт-Петербург, Компьютеры и интернет, Наука и образование, Техническая литература, Юридическая литература

Цифровые товары

iTunes & App Store, Базы данных, Дизайн, Доступ к ресурсам, Kарты продления, ключи, Фотографии, Шаблоны для сайтов

Программное обеспечение

Безопасность, Игры, PC, Интернет, Мобильная связь, Программирование, Продвижение сайтов (SEO), Утилиты
[Профиль] [ЛС]
Показать сообщения:    
Ответить на тему

Текущее время: 01-Дек 09:59

Часовой пояс: UTC + 4



Вы не можете начинать темы
Вы не можете отвечать на сообщения
Вы не можете редактировать свои сообщения
Вы не можете удалять свои сообщения
Вы не можете голосовать в опросах
Вы не можете прикреплять файлы к сообщениям
Вы можете скачивать файлы
Анализ сайта korsars.pro Яндекс.Метрика