Женщина-Халк: Адвокат / She-Hulk: Attorney at Law [S01] (2022) WEB-DLRip 1080p | D | Локализованная версия | Flarrow Films

Ответить на тему
Статистика раздачи [Обновить пиров]
Размер:  14,19 GB   |    Зарегистрирован:  3 месяца 1 день   |    .torrent скачан:  31 раз
Раздают:  85  [  53 KB/s  ]   Качают:  96  [  0 KB/s  ]   Подробная статистика пиров
   
 
Автор Сообщение

flarrowfilms ®

Оффлайн

Медали
VIPДруг трекераСупер Мега Контер Квейк


Пол: Не указан

Стаж: 2 года 10 месяцев

Наличие запрета:

Сообщений: 141

Отдача: 5 Mb/s

Загрузка: 5 Mb/s



Скачать Adguard бесплатно

Создавать темы 22-Авг-2022 13:16

[Цитировать]

Информация о фильме
Название: Женщина-Халк: Адвокат
Оригинальное название: She-Hulk: Attorney at Law
Год выхода: 2022
Жанр: фантастика, боевик, драма, комедия, приключения
Режиссер: Кэт Койро, Ану Валиа
В ролях: Татьяна Маслани, Марк Руффало, Джинджер Гонзага, Джамила Джамил, Тим Рот, Бенедикт Вонг, Чарли Кокс, Джош Сегарра, Гриффин Мэтьюз, Стив Култер
О фильме:
В центре истории окажется адвокат Дженнифер Уолтерс - кузина гениального ученого Брюса Беннера.
Она получает суперсилу Халка из за попадания крови в ее тело. Дженнифер предстоит научиться управлять своими силами, и применять их во благо, продолжая работать в новообразованном «отделе по правам сверхлюдей».

Страна: США
Продолжительность: 00:35:22
Перевод: Дублированный | Flarrow Films
Роли озвучивали: Александра Остроухова, Алексей Мясников, Прохор Чеховской, Александр Матросов, Михаил Глушковский, Антон Савенков, Глеб Петров, Дмитрий Лунёв, Сергей Пономарёв, Алина Лихачева, Ахилл Намазов, Константин Погодаев, Алёна Соколова, Андрей Маслов, Антонина Лазаревская, Егор Васильев, Константин Федосеев, Дмитрий Мальков, Дмитрий Бугаков, Андрей Лысенко, Виталий Кашеваров, Алексей Гнеушев, Татьяна Тарасова, Лена Лунина, Рута Няттиева, Алексей Ядренников, Семён Евсиков
Файл
Формат: MKV
Кодек: MPEG-4 AVC
Качество: WEB-DLRip 1080p (локализованный видеоряд)
Видео: 1920х1080, ~ 9 421 kb/s, 24.000, 8 bits
Аудио: AC-3, 192 kb/s, 2 channels, 48.0 kHz
Субтитры: русские (отключаемые UTF-8)
Сэмпл: скачать-

MediaInfo

General
Unique ID : 281710818678227748611185672886151959661 (0xD3EF87B6EDCF56D68DA7164149AE546D)
Complete name : C:\Flarrow\She-Hulk.Attorney.at.Law.S01.1080p.D.Flarrow.Films\She-Hulk.Attorney.at.Law.S01E01.mkv
Format : Matroska
Format version : Version 4
File size : 2.38 GiB
Duration : 35 min 22 s
Overall bit rate : 9 616 kb/s
Encoded date : UTC 2022-08-22 07:56:35
Writing application : mkvmerge v32.0.0 ('Astral Progressions') 64-bit
Writing library : libebml v1.3.7 + libmatroska v1.5.0
Video
ID : 1
Format : AVC
Format/Info : Advanced Video Codec
Format profile : Main@L4.1
Format settings : CABAC / 4 Ref Frames
Format settings, CABAC : Yes
Format settings, Reference : 4 frames
Codec ID : V_MPEG4/ISO/AVC
Duration : 35 min 22 s
Bit rate : 9 421 kb/s
Width : 1 920 pixels
Height : 1 080 pixels
Display aspect ratio : 16:9
Frame rate mode : Constant
Frame rate : 24.000 FPS
Color space : YUV
Chroma subsampling : 4:2:0
Bit depth : 8 bits
Scan type : Progressive
Bits/(Pixel*Frame) : 0.189
Stream size : 2.33 GiB (98%)
Language : Russian
Default : Yes
Forced : No
Color range : Limited
Color primaries : BT.709
Transfer characteristics : BT.709
Matrix coefficients : BT.709
Audio
ID : 2
Format : AC-3
Format/Info : Audio Coding 3
Commercial name : Dolby Digital
Codec ID : A_AC3
Duration : 35 min 22 s
Bit rate mode : Constant
Bit rate : 192 kb/s
Channel(s) : 2 channels
Channel layout : L R
Sampling rate : 48.0 kHz
Frame rate : 31.250 FPS (1536 SPF)
Compression mode : Lossy
Stream size : 48.6 MiB (2%)
Language : Russian
Service kind : Complete Main
Default : Yes
Forced : No
Text
ID : 3
Format : UTF-8
Codec ID : S_TEXT/UTF8
Codec ID/Info : UTF-8 Plain Text
Duration : 33 min 1 s
Bit rate : 130 b/s
Count of elements : 517
Stream size : 31.5 KiB (0%)
Language : Russian
Default : Yes
Forced : No
--Релиз от: Flarrow Films
Примечание: Релиз без рекламы-
AdGuard VPN - бесплатный, надёжный и быстрый VPN
[korsars.pro].t66683.torrent 
Торрент: Зарегистрирован [ 2022-10-26 13:26 ] · 40238EAE934CCCB5D7E64B4F98574AF0997711CF

Скачать .torrent

Размер .torrent файла 36 KB

Статус: проверено
.torrent скачан: 31 раз
Размер: 14,19 GB
Правила
MARVEL(23-Авг-22), 4udaki(01-Сен-22), Zausenets(01-Сен-22), Jordan7(26-Окт-22), Rezident09(03-Дек-22)
AdGuard VPN - бесплатный, надёжный и быстрый VPN
Похожие темы

Вы не зарегистрированы на нашем сайте. Вам доступна для скачивания только часть контента. Чтобы увидеть весь контент сайта, пожалуйста, зарегистрироруйтесь.

Дешевый и быстрый Сидбокс

Ключи и пин-коды

Игры, Кредитные карты, IP-телефония, Интернет провайдеры, Мобильная связь, Спутниковое ТВ

Электронные книги

Бизнес и экономика, Дом, быт, семья, досуг, Санкт-Петербург, Компьютеры и интернет, Наука и образование, Техническая литература, Юридическая литература

Цифровые товары

iTunes & App Store, Базы данных, Дизайн, Доступ к ресурсам, Kарты продления, ключи, Фотографии, Шаблоны для сайтов

Программное обеспечение

Безопасность, Игры, PC, Интернет, Мобильная связь, Программирование, Продвижение сайтов (SEO), Утилиты
У Вас отключен VIP статус, поэтому Вам показывается реклама на сайте. Вы можете поддержать наш ресурс и приобрести VIP статус, тем самым отключив показ рекламы на сайте, а ещё VIP пользователи получают возможность

смотреть аниме онлайн в HD качестве

(не распространяется на раздел Flarrow Films), а так же получить 5 инвайтов, которыми можно поделиться с друзьями или знакомыми.
Дешевый и быстрый Сидбокс

Ключи и пин-коды

Игры, Кредитные карты, IP-телефония, Интернет провайдеры, Мобильная связь, Спутниковое ТВ

Электронные книги

Бизнес и экономика, Дом, быт, семья, досуг, Санкт-Петербург, Компьютеры и интернет, Наука и образование, Техническая литература, Юридическая литература

Цифровые товары

iTunes & App Store, Базы данных, Дизайн, Доступ к ресурсам, Kарты продления, ключи, Фотографии, Шаблоны для сайтов

Программное обеспечение

Безопасность, Игры, PC, Интернет, Мобильная связь, Программирование, Продвижение сайтов (SEO), Утилиты
[Профиль] [ЛС]
Показать сообщения:    
Ответить на тему

Текущее время: 28-Янв 01:02

Часовой пояс: UTC + 4



Вы не можете начинать темы
Вы не можете отвечать на сообщения
Вы не можете редактировать свои сообщения
Вы не можете удалять свои сообщения
Вы не можете голосовать в опросах
Вы не можете прикреплять файлы к сообщениям
Вы можете скачивать файлы
Анализ сайта korsars.pro Яндекс.Метрика