Морской монстр / The Sea Beast (2022) WEB-DLRip-AVC от ExKinoRay | D

Ответить на тему
Статистика раздачи [Обновить пиров]
Размер:  745 MB   |    Зарегистрирован:  1 месяц 24 дня   |    .torrent скачан:  1 раз
Раздают:  88  [  0 KB/s  ]   Качают:  25  [  0 KB/s  ]   Подробная статистика пиров
   
 
Автор Сообщение

4udaki ®

Онлайн

Медали


Пол: Мужской

Стаж: 7 лет 10 месяцев

Наличие запрета:

Сообщений: 27263

Откуда: korsars.pro

Отдача: 2 Mb/s

Загрузка: 20 Mb/s



Скачать Adguard бесплатно

Создавать темы 04-Авг-2022 17:00

[Цитировать]

Информация о фильме
Название: Морской монстр
Оригинальное название: The Sea Beast
Год выхода: 2022
Жанр: Мультфильм, фэнтези, комедия, приключения, семейный
Режиссер: ЛазРаэль Лисон
Роли озвучивают: Карл Урбан, Дэн Стивенс, Джаред Харрис, Эмили О’Брайэн, Марианн Жан-Баптист, Кэти Бёрк, Зарис-Анжел Хатор, Барака Мэй, Сомали Роз, Бенжамин Плессала
О фильме:
Охотиться на больших морских монстров для охотника и капитана собственного корабля Джейкоба считается обыкновенным делом, связанным с относительными рисками. Только однажды на борт, где находился он и его единомышленники, попадает девочка Мэйси, которая тоже мечтает в будущем стать охотницей. Попытки от неё избавиться не проходят и необходимо взять неохотно ребенка в коллектив.

Страна: США
Студия: Netflix, Netflix Animation
Продолжительность: 01:59:26
Перевод: Любительский (дублированный) | Red Head Sound
Файл
Формат: MKV
Качество: WEB-DLRip-AVC
Видео: MPEG-4 AVC, 704x380, 787 Кбит/с
Аудио: AAC-HE, 2 ch, 84 Кбит/с
Субтитры: Русские (форсированные, полные)

MI

Общее
Уникальный идентификатор : 11195408974034672978050535916320078035 (0x86C2847523BA9F52D3826D1DEB038D3)
Полное имя : D:MOVIESThe.Sea.Beast.2022.WEB-DLRip-AVC.ExKinoRay.mkv
Формат : Matroska
Версия формата : Version 4
Размер файла : 745 Мбайт
Продолжительность : 1 ч. 59 м.
Общий поток : 872 Кбит/сек
Дата кодирования : UTC 2022-08-04 04:56:01
Программа кодирования : mkvmerge v48.0.0 ('Fortress Around Your Heart') 64-bit
Библиотека кодирования : libebml v1.4.0 + libmatroska v1.6.0
Видео
Идентификатор : 1
Формат : AVC
Формат/Информация : Advanced Video Codec
Профиль формата : High@L4.1
Настройки формата : CABAC / 11 Ref Frames
Параметр CABAC формата : Да
Параметр RefFrames формата : 11 кадров
Идентификатор кодека : V_MPEG4/ISO/AVC
Продолжительность : 1 ч. 59 м.
Битрейт : 787 Кбит/сек
Ширина : 704 пикселя
Высота : 380 пикселей
Соотношение сторон : 1,85:1
Режим частоты кадров : Постоянный
Частота кадров : 24,000 кадра/сек
Цветовое пространство : YUV
Субдискретизация насыщенности : 4:2:0
Битовая глубина : 8 бит
Тип развёртки : Прогрессивная
Бит/(Пиксели*Кадры) : 0.123
Размер потока : 672 Мбайт (90%)
Библиотека кодирования : x264 core 164 r3081 19856cc
Настройки программы : cabac=1 / ref=11 / deblock=1:-2:-2 / analyse=0x3:0x133 / me=umh / subme=10 / psy=1 / psy_rd=1.05:0.14 / mixed_ref=1 / me_range=32 / chroma_me=1 / trellis=2 / 8x8dct=1 / cqm=0 / deadzone=21,11 / fast_pskip=0 / chroma_qp_offset=-3 / threads=6 / lookahead_threads=1 / sliced_threads=0 / nr=0 / decimate=0 / interlaced=0 / bluray_compat=0 / constrained_intra=0 / bframes=10 / b_pyramid=2 / b_adapt=2 / b_bias=0 / direct=3 / weightb=1 / open_gop=0 / weightp=2 / keyint=240 / keyint_min=24 / scenecut=40 / intra_refresh=0 / rc=2pass / mbtree=0 / bitrate=787 / ratetol=1.0 / qcomp=0.60 / qpmin=0 / qpmax=69 / qpstep=4 / cplxblur=20.0 / qblur=0.5 / ip_ratio=1.40 / pb_ratio=1.30 / aq=3:1.00
Язык : English
Default : Да
Forced : Нет
Цветовой диапазон : Limited
Основные цвета : BT.709
Характеристики трансфера : BT.709
Коэффициенты матрицы : BT.709
Аудио
Идентификатор : 2
Формат : AAC LC SBR
Формат/Информация : Advanced Audio Codec Low Complexity with Spectral Band Replication
Коммерческое название : HE-AAC
Настройки формата : Explicit
Идентификатор кодека : A_AAC-2
Продолжительность : 1 ч. 59 м.
Битрейт : 84,0 Кбит/сек
Каналы : 2 канала
Channel layout : L R
Частота : 48,0 КГц
Частота кадров : 23,438 кадра/сек (2048 SPF)
Метод сжатия : С потерями
Задержка видео : 31 мс.
Размер потока : 71,8 Мбайт (10%)
Язык : Russian
Default : Да
Forced : Нет
Текст #1
Идентификатор : 3
Формат : UTF-8
Идентификатор кодека : S_TEXT/UTF8
Идентификатор кодека/Информация : UTF-8 Plain Text
Продолжительность : 1 ч. 48 м.
Битрейт : 4 бит/сек
Count of elements : 43
Размер потока : 3,22 Кбайт (0%)
Заголовок : fors
Язык : Russian
Default : Да
Forced : Да
Текст #2
Идентификатор : 4
Формат : UTF-8
Идентификатор кодека : S_TEXT/UTF8
Идентификатор кодека/Информация : UTF-8 Plain Text
Продолжительность : 1 ч. 54 м.
Битрейт : 62 бит/сек
Count of elements : 1055
Размер потока : 52,6 Кбайт (0%)
Язык : Russian
Default : Нет
Forced : Нет
Меню
01:49:21.000 : en:Credits
-
[korsars.pro].t64972.torrent 
Торрент: Зарегистрирован [ 2022-08-04 17:00 ] · B5E6CE05F7BF2DD33A7B84D23BBA355B24F251C0

Скачать .torrent

Размер .torrent файла 15 KB

Статус: проверено
.torrent скачан: 1 раз
Размер: 745 MB
Правила
Похожие темы

Вы не зарегистрированы на нашем сайте. Вам доступна для скачивания только часть контента. Чтобы увидеть весь контент сайта, пожалуйста, зарегистрироруйтесь.

Дешевый и быстрый Сидбокс

Ключи и пин-коды

Игры, Кредитные карты, IP-телефония, Интернет провайдеры, Мобильная связь, Спутниковое ТВ

Электронные книги

Бизнес и экономика, Дом, быт, семья, досуг, Санкт-Петербург, Компьютеры и интернет, Наука и образование, Техническая литература, Юридическая литература

Цифровые товары

iTunes & App Store, Базы данных, Дизайн, Доступ к ресурсам, Kарты продления, ключи, Фотографии, Шаблоны для сайтов

Программное обеспечение

Безопасность, Игры, PC, Интернет, Мобильная связь, Программирование, Продвижение сайтов (SEO), Утилиты
У Вас отключен VIP статус, поэтому Вам показывается реклама на сайте. Вы можете поддержать наш ресурс и приобрести VIP статус, тем самым отключив показ рекламы на сайте, а ещё VIP пользователи получают возможность

смотреть аниме онлайн в HD качестве

(не распространяется на раздел Flarrow Films), а так же получить 5 инвайтов, которыми можно поделиться с друзьями или знакомыми.
Дешевый и быстрый Сидбокс

Ключи и пин-коды

Игры, Кредитные карты, IP-телефония, Интернет провайдеры, Мобильная связь, Спутниковое ТВ

Электронные книги

Бизнес и экономика, Дом, быт, семья, досуг, Санкт-Петербург, Компьютеры и интернет, Наука и образование, Техническая литература, Юридическая литература

Цифровые товары

iTunes & App Store, Базы данных, Дизайн, Доступ к ресурсам, Kарты продления, ключи, Фотографии, Шаблоны для сайтов

Программное обеспечение

Безопасность, Игры, PC, Интернет, Мобильная связь, Программирование, Продвижение сайтов (SEO), Утилиты
[Профиль] [ЛС]
Показать сообщения:    
Ответить на тему

Текущее время: 29-Сен 15:26

Часовой пояс: UTC + 4



Вы не можете начинать темы
Вы не можете отвечать на сообщения
Вы не можете редактировать свои сообщения
Вы не можете удалять свои сообщения
Вы не можете голосовать в опросах
Вы не можете прикреплять файлы к сообщениям
Вы можете скачивать файлы
Анализ сайта korsars.pro Яндекс.Метрика