Разделение / Severance [S01] (2022) WEB-DL 1080p | Невафильм

Ответить на тему
Статистика раздачи [Обновить пиров]
Размер:  35,53 GB   |    Зарегистрирован:  1 год 9 месяцев   |    .torrent скачан:  12 раз

Полного источника не было: 1 год 2 месяца

   
 
Автор Сообщение

ExPlayer ®

Оффлайн

Медали


Пол: Мужской

Стаж: 9 лет 6 месяцев

Наличие запрета:

Сообщений: 60011

Откуда: korsars.pro

Отдача: 100 Mb/s

Загрузка: 100 Mb/s



AdGuard VPN - бесплатный, надёжный и быстрый VPN

Создавать темы 24-Июл-2022 21:00

[Цитировать]

Информация о фильме
Название: Разделение
Оригинальное название: Severance
Год выхода: 2022
Жанр: фантастика, триллер, драма, детектив
Режиссёр: Бен Стиллер, Ифа Макардл
В ролях: Адам Скотт, Зак Черри, Бриттни Лоуэр, Джен Таллок, Дичен Лакмэн, Майкл Чернус, Джон Туртурро, Кристофер Уокен, Патриша Аркетт
О фильме: «Разделение» — герметичный триллер и остроумная сатирическая антиутопия от Бена Стиллера и Apple TV+. В основе сюжета лежит простая, но любопытная концепция. Что будет с человеком, если с помощью чипа в мозгу разделить его рабочие и личные воспоминания? Это с одной стороны предупреждение об опасном влиянии технологий в духе «Черного зеркала». С другой — намек на большую конспирологию, как в «Мистере Роботе». Имеется тут и исследование человеческой натуры и поведения в социуме на уровне «Шоу Трумана» и «Вечного сияния чистого разума». Параноидальные и тревожные вайбы, начиная с жутких вступительных титров, напоминают о фильмах Чарли Кауфмана типа «Быть Джоном Малковичем». При всем этом «Разделение» аутентичный, опирающийся на собственную философию, стильный и выверенный до мелочей проект. В нем и форма соответствует содержанию — пустые длинные коридоры, усыпляющий бдительность зеленый свет, аналоговая техника и прочие анахронизмы сами по себе пугают. А добивающаяся симметрии камера сбивает с толку. В загадочный мир «Разделения» зрителей проводит комик с грустным лицом Адам Скотт («Паранормальщина», «Большая маленькая ложь»), а его партнерами по съемочной площадке стали такие звезды, как Джон Туртурро, Патриша Аркетт и Кристофер Уокен.
Новая сотрудница глобальной корпорации «Люмен» (Бритт Лоуэр) приходит в себя на столе для переговоров. Голос по громкой связи задает ей странные вопросы, но она даже не помнит, как ее зовут. Девушка начинает биться в панике, но ее быстро успокаивают, напоминают имя — Хелли, и сообщают, что она добровольно согласилась на сомнительную процедуру. Ей в мозг вживили чип, отделяющий рабочие воспоминания от личных. Теперь Хелли предстоит работать на разделенном этаже в отделе макроданных, а голос принадлежал ее начальнику Марку Скауту (Адам Скотт). Сам Марк тоже два года назад прошел через аналогичную операцию, но его-то мотивы как раз ясны. Он потерял жену и, не сумев смириться с ее гибелью, решил забывать о трагедии на восемь часов по будням. Не сказать, что это сделало Марка счастливее — утром перед работой он рыдает на парковке, а затем идет бесконечно длинными коридорами в компанию, о миссии которой никто ничего не знает. Задача его отдела — искать и группировать «страшные цифры». Для чего — неизвестно. Все вроде как мирятся с такой мутной реальностью, ведь подать заявление на увольнение может только внешняя часть твоей личности, а ей невдомек, что ты тут страдаешь. Поэтому сотрудники «Люмена» благоговейно кланяются барельефу основателя корпорации в холле и, как прилежные ученики, зубрят устав. Все, кроме Хелли, которая задает слишком много вопросов для разделенной личности. А между тем во внешнюю жизнь Марка врывается бывший коллега, исчезнувший при загадочных обстоятельствах…

Страна: США
Студия: Endeavor Content, Red Hour Films
Продолжительность: ~00:55:00 серия
Перевод: Профессиональный (дублированный) Невафильм по заказу Apple TV+
Файл
Качество: WEB-DL 1080p
Формат: Matroska
Видео: 1918x802 at 23.976 fps, MPEG4-AVC, ~10000 kbps avg
Аудио#1: Russian: 48 kHz, E-AC3 JOC, 3/2 (L,C,R,l,r) + LFE ch, ~768 kbps avg |Дубляж, Невафильм по заказу Apple TV+|
Аудио#2: English: 48 kHz, E-AC3 JOC, 3/2 (L,C,R,l,r) + LFE ch, ~768 kbps avg
Субтитры: Russian (Forced, Full, SDH), English (Full, SDH) и другие
***Примечание: Без рекламы
***Релиз: Wilmots@EniaHD

Список серий

01. Не стоит бояться Ада / Good News About Hell
02. Полупетля / Half Loop
03. Вечность / In Perpetuity
04. Настоящий ты / The You You Are
05. Беспощадная жестокость отдела оптики и дизайна / The Grim Barbarity Of Optics and Design
06. Прятки / Hide and Seek
07. Дерзкий джаз / Defiant Jazz
08. Что на ужин? / What's for Dinner?
09. Настоящие мы / The We We Are

MediaInfo

General
Unique ID : 93469030612048032744743563529768072737 (0x46517B01947B9643BC3BCFAFDA62F621)
Complete name : Severance.S01E01.Good.News.About.Hell.1080p.ATVP.WEB-DL.DDP5.1.H.264-EniaHD.mkv
Format : Matroska
Format version : Version 4
File size : 4.66 GiB
Duration : 57 min 14 s
Overall bit rate : 11.7 Mb/s
Movie name : Severance S01E01 [Good News About Hell] - EniaHD
Writing application : mkvmerge v57.0.0 ('Till The End') 64-bit
Writing library : libebml v1.4.2 + libmatroska v1.6.4
Video
ID : 1
Format : AVC
Format/Info : Advanced Video Codec
Format profile : High@L4
Format settings : CABAC / 5 Ref Frames
Format settings, CABAC : Yes
Format settings, Reference fra : 5 frames
Codec ID : V_MPEG4/ISO/AVC
Duration : 57 min 14 s
Bit rate : 10.1 Mb/s
Width : 1 918 pixels
Height : 802 pixels
Display aspect ratio : 2.40:1
Frame rate mode : Constant
Frame rate : 23.976 (24000/1001) FPS
Color space : YUV
Chroma subsampling : 4:2:0
Bit depth : 8 bits
Scan type : Progressive
Bits/(Pixel*Frame) : 0.274
Stream size : 4.05 GiB (87%)
Default : Yes
Forced : No
Color range : Limited
Color primaries : BT.709
Transfer characteristics : BT.709
Matrix coefficients : BT.709
Audio #1
ID : 2
Format : E-AC-3 JOC
Format/Info : Enhanced AC-3 with Joint Object Coding
Commercial name : Dolby Digital Plus with Dolby Atmos
Codec ID : A_EAC3
Duration : 57 min 14 s
Bit rate mode : Constant
Bit rate : 768 kb/s
Channel(s) : 6 channels
Channel layout : L R C LFE Ls Rs
Sampling rate : 48.0 kHz
Frame rate : 31.250 FPS (1536 SPF)
Compression mode : Lossy
Stream size : 314 MiB (7%)
Language : Russian
Service kind : Complete Main
Default : Yes
Forced : No
Complexity index : 16
Number of dynamic objects : 15
Bed channel count : 1 channel
Bed channel configuration : LFE
Audio #2
ID : 3
Format : E-AC-3 JOC
Format/Info : Enhanced AC-3 with Joint Object Coding
Commercial name : Dolby Digital Plus with Dolby Atmos
Codec ID : A_EAC3
Duration : 57 min 14 s
Bit rate mode : Constant
Bit rate : 768 kb/s
Channel(s) : 6 channels
Channel layout : L R C LFE Ls Rs
Sampling rate : 48.0 kHz
Frame rate : 31.250 FPS (1536 SPF)
Compression mode : Lossy
Stream size : 314 MiB (7%)
Language : English
Service kind : Complete Main
Default : No
Forced : No
Complexity index : 16
Number of dynamic objects : 15
Bed channel count : 1 channel
Bed channel configuration : LFE
Text #1
ID : 4
Format : UTF-8
Codec ID : S_TEXT/UTF8
Codec ID/Info : UTF-8 Plain Text
Duration : 49 min 16 s
Bit rate : 3 b/s
Count of elements : 28
Stream size : 1.16 KiB (0%)
Title : Forced
Language : Russian
Default : Yes
Forced : No
Text #2
ID : 5
Format : UTF-8
Codec ID : S_TEXT/UTF8
Codec ID/Info : UTF-8 Plain Text
Duration : 56 min 56 s
Bit rate : 74 b/s
Count of elements : 607
Stream size : 31.2 KiB (0%)
Language : Russian
Default : No
Forced : No
Text #3
ID : 6
Format : UTF-8
Codec ID : S_TEXT/UTF8
Codec ID/Info : UTF-8 Plain Text
Duration : 55 min 25 s
Bit rate : 86 b/s
Count of elements : 688
Stream size : 35.1 KiB (0%)
Title : SDH
Language : Russian
Default : No
Forced : No
Text #4
ID : 7
Format : UTF-8
Codec ID : S_TEXT/UTF8
Codec ID/Info : UTF-8 Plain Text
Duration : 55 min 4 s
Bit rate : 48 b/s
Count of elements : 578
Stream size : 19.6 KiB (0%)
Language : English
Default : No
Forced : No
Text #5
ID : 8
Format : UTF-8
Codec ID : S_TEXT/UTF8
Codec ID/Info : UTF-8 Plain Text
Duration : 55 min 25 s
Bit rate : 54 b/s
Count of elements : 660
Stream size : 22.1 KiB (0%)
Title : SDH
Language : English
Default : No
Forced : No
Text #6
ID : 9
Format : UTF-8
Codec ID : S_TEXT/UTF8
Codec ID/Info : UTF-8 Plain Text
Duration : 56 min 56 s
Bit rate : 64 b/s
Count of elements : 606
Stream size : 26.7 KiB (0%)
Language : Hebrew
Default : No
Forced : No
Text #7
ID : 10
Format : UTF-8
Codec ID : S_TEXT/UTF8
Codec ID/Info : UTF-8 Plain Text
Duration : 56 min 56 s
Bit rate : 76 b/s
Count of elements : 606
Stream size : 31.7 KiB (0%)
Language : Ukrainian
Default : No
Forced : No

Раздача ведется путем добавления новых серий

Когда раздача ведётся путём добавления новых серий, при каждом добавлении создaётся новый торрент. Чтобы начать докачку новой серии, пользователям необходимо сделать следующее:
(1) остановить скачивание,
(2) удалить старый торрент у себя из клиента (старые серии удалять не надо),
(3) скачать новый торрент и запустить его у себя в клиенте вместо старого, при этом указать клиенту путь в старую папку, куда и должно происходить скачивание новых серий.
Ваш клиент при этом должен произвести хеширование (проверку) старой папки (если не производит сам - помогите ему сделать это), и будет докачивать только те серии, которых у вас ещё нет. Старые серии при этом не удаляются, а продолжают раздаваться!
Eсли вы уже удалили старые серии, то предотвратить повторную закачку старых серий можно, отжав галочку в соответствующих местах при запуске нового торрента. По возможности, желательно не удалять старые серии как можно дольше, чтобы релизер не столько продолжал раздавать старые серии, а смог сконцентрироваться на новых.
AdGuard VPN - бесплатный, надёжный и быстрый VPN
[korsars.pro].t62383.torrent 
Торрент: Зарегистрирован [ 2022-07-24 21:00 ] · 67BEC3578F4A9B7DD0F1DD0CB88E4D583C6043DC

Скачать .torrent

Размер .torrent файла 91 KB

Статус: проверено
.torrent скачан: 12 раз
Размер: 35,53 GB
Правила

AdGuard VPN - бесплатный, надёжный и быстрый VPN
Похожие темы

Вы не зарегистрированы на нашем сайте. Вам доступна для скачивания только часть контента. Чтобы увидеть весь контент сайта, пожалуйста, зарегистрируйтесь.

Дешевый и быстрый Сидбокс
У Вас отключен VIP статус, поэтому Вам показывается реклама на сайте. Вы можете поддержать наш ресурс и приобрести VIP статус, тем самым отключив показ рекламы на сайте, а ещё VIP пользователи получают 15 инвайтов, которыми можно поделиться с друзьями или знакомыми.
Дешевый и быстрый Сидбокс
AdGuard - Интернет без рекламы и слежки в любом браузере
[Профиль] [ЛС]
Показать сообщения:    
Ответить на тему

Текущее время: 21-Май 11:17

Часовой пояс: UTC + 4



Вы не можете начинать темы
Вы не можете отвечать на сообщения
Вы не можете редактировать свои сообщения
Вы не можете удалять свои сообщения
Вы не можете голосовать в опросах
Вы не можете прикреплять файлы к сообщениям
Вы можете скачивать файлы
Анализ сайта korsars.pro Яндекс.Метрика

Материал для зрителей старше 18 летВсе материалы на сайте получены из свободных источников в сети Интернет и представлены исключительно для личного (некоммерческого) использования лицами старше 18 лет.