Пластиковые воспоминания / Plastic Memories [S01] (2015) BDRip 1080p от Deadmauvlad | Anilibria, AniDUB, SHIZA Project, FanVoxUA

Ответить на тему
Статистика раздачи [Обновить пиров]
Размер:  27,22 GB   |    Зарегистрирован:  2 месяца 12 дней   |    .torrent скачан:  8 раз
Раздают:  1  [  0 KB/s  ]   Качают:  2  [  0 KB/s  ]   Подробная статистика пиров
   
 
Автор Сообщение

4udaki ®

Оффлайн

Медали


Пол: Мужской

Стаж: 7 лет 11 месяцев

Наличие запрета:

Сообщений: 27642

Откуда: korsars.pro

Отдача: 2 Mb/s

Загрузка: 20 Mb/s



Скачать Adguard бесплатно

Создавать темы 23-Июл-2022 13:00

[Цитировать]

Информация о фильме
Название: Пластиковые воспоминания
Оригинальное название: Plastic Memories
Год выхода: 2015
Жанр: Драма, фантастика, приключения
Режиссер: Ёсиюки Фудзивара, Ясухиро Кимура, Тацуя Нокимори
В ролях: Ясуаки Такуми, Сора Амамия, Акасаки Тинацу, Саюри Яаги, Мэгуми Тоёгути, Нобуо Тобита, Синносукэ Огами, Сатоси Хино, Кэндзиро Цуда, Аими Тэракава
О фильме:
Недалёкое будущее. Андроиды, выглядящие в точности как люди, уже стали обыденностью. Компания SAI. начинает выпуск «гифтий» — андроидов совершенно нового типа, обладающих невиданными у андроидов доселе эмоциями, приблизивших их к человеку насколько это только возможно. Но как и любая техника, андроиды тоже имеют свой срок службы. А когда андроиды отслуживают свой срок… Ну, можно сказать, всякое случается… Именно поэтому SAI создает специальную службу по отзыву и возвращению таких андроидов. Недавно принятый на работу Цукаса Мизугаки получает в напарники Айлу, андроида гифт-типа. С этого момента и начинается эта романтическая история человека и андроида.

Перевод: Любительский Многоголосый закадровый | Рапунцель-тян & Lucifer & Kiana & KrisLaKras | JazzWay Anime
Перевод: Любительский Многоголосый закадровый | Ancord, Fuurou, Shina | AniDUB
Перевод: Любительский Двухголосый закадровый | Railgun & Lamia | AniLibria
Перевод: Любительский Двухголосый закадровый | Snowly & Hekomi | SHIZA Project
Української мови Двоголосе озвучення від Crupt та MariAm | FanVoxUA
Страна: Япония
Студия: Aniplex; Asahi Hoso; AT-X; Bushiroad; Dogakobo; Kadokawa; Mages; Movic Inc.; Nippon BS Broadcasting Corporation
Продолжительность: 13х~00:25:00
Файл
Файл
Кодек: X264 | 8 bit Version
Качество: BDRip 1080p
Формат видео: MKV / AVC
Видео: AVC, 1920x1080 (16:9), 23.976 fps, 9 966 kb/s (0.200 bit/pixel)
Аудио №1: FLAC, 48.0 kHz, 2 ch, 1 310 kb/s, VBR | | Japan (Оригинал)
Субтитры: Русские
Отдельное Аудио:
Аудио №1: AC3, 48.0 kHz, 2 ch, 192 kb/s, CBR | | AniDub
Аудио №2: AC3, 48.0 kHz, 2 ch, 192 kb/s, CBR | | JazzWay Anime
Аудио №3: AC3, 48.0 kHz, 2 ch, 192 kb/s, CBR | | AniLibria
Аудио №4: AC3, 48.0 kHz, 2 ch, 192 kb/s, CBR | | SHIZA Project
Аудио № 5: AAC, 44.1 kHz, 2 ch, 114 kb/s , VBR | | Украинская Озвучка | FanVoxUA
Аудио №6: AAC, 48.0 kHz, 2 ch, 152 kb/s, CBR | German (Deutsche Dubbed)
Субтитры: Русские (полные), English (Full), Chinese

Список эпизодов

01. Напарники
02. Не хочу быть обузой
03. Начало совместной жизни
04. Я не знаю, как улыбаться
05. Обещание, которое я хочу сдержать
06. Добро пожаловать домой
07. Как мне пригласить её
08. Я никогда не видела фейерверк
09. После фестиваля
10. Больше не напарники
11. День омлета
12. Чудесные воспоминания
13. Надеюсь, однажды мы снова будем вместе

MediaInfo

Общее
Уникальный идентификатор : 8168635425645701066427609135094285785 (0x62538D22E43F913E199305278E9C5D9)
Полное имя : [Deadmau- RAWS] Plastic.Memories.S01.2015.1080p.BDRip.X264.FLAC.Deadmauvlad.Ep.01.mkv
Формат : Matroska
Версия формата : Version 4
Размер файла : 2,02 Гбайт
Продолжительность : 25 м. 40 с.
Режим общего битрейта : Переменный
Общий поток : 11,3 Мбит/сек
Название фильма : [Deadmau- RAWS] Plastic.Memories.S01.2015.1080p.BDRip.X264.FLAC.Deadmauvlad
Дата кодирования : UTC 2022-04-27 12:34:22
Программа кодирования : mkvmerge v64.0.0 ('Willows') 64-bit
Библиотека кодирования : libebml v1.4.2 + libmatroska v1.6.4
Видео
Идентификатор : 1
Формат : AVC
Формат/Информация : Advanced Video Codec
Профиль формата : High@L4.1
Настройки формата : CABAC / 7 Ref Frames
Параметр CABAC формата : Да
Параметр RefFrames формата : 7 кадров
Идентификатор кодека : V_MPEG4/ISO/AVC
Продолжительность : 25 м. 39 с.
Битрейт : 9 966 Кбит/сек
Ширина : 1 920 пикселей
Высота : 1 080 пикселей
Соотношение сторон : 16:9
Режим частоты кадров : Постоянный
Частота кадров : 23,976 (24000/1001) кадра/сек
Цветовое пространство : YUV
Субдискретизация насыщенности : 4:2:0
Битовая глубина : 8 бит
Тип развёртки : Прогрессивная
Бит/(Пиксели*Кадры) : 0.200
Размер потока : 1,79 Гбайт (88%)
Заголовок : Encoder by Deadmauvlad ft 7pie
Библиотека кодирования : x264 core 164 r3085+55M 938b6d0 t_mod_New [(8 & 10)-bit@all X86_64]
Настройки программы : cabac=1 / ref=7 / deblock=1:-3:-3 / analyse=0x3:0x133 / me=umh / subme=10 / psy=1 / fade_compensate=0.00 / psy_rd=1.00:0.00 / mixed_ref=0 / me_range=44 / chroma_me=1 / trellis=2 / 8x8dct=1 / cqm=0 / deadzone=21,11 / fast_pskip=1 / chroma_qp_offset=-2 / threads=18 / lookahead_threads=4 / sliced_threads=0 / nr=0 / decimate=1 / interlaced=0 / bluray_compat=0 / constrained_intra=0 / fgo=0 / bframes=12 / b_pyramid=2 / b_adapt=2 / b_bias=0 / direct=1 / weightb=1 / open_gop=0 / weightp=2 / keyint=240 / keyint_min=24 / scenecut=40 / intra_refresh=0 / rc_lookahead=90 / rc=2pass / mbtree=1 / bitrate=9966 / ratetol=1.0 / qcomp=0.73 / qpmin=4:4:4 / qpmax=69:69:69 / qpstep=4 / cplxblur=20.0 / qblur=0.5 / vbv_maxrate=89000 / vbv_bufsize=95000 / nal_hrd=none / filler=0 / ip_ratio=1.40 / aq=1:0.90 / aq-sensitivity=10.00 / aq-factor=1.00:1.00:1.00 / aq2=0 / aq3=0
Язык : English
Default : Да
Forced : Нет
Аудио
Идентификатор : 2
Формат : FLAC
Формат/Информация : Free Lossless Audio Codec
Идентификатор кодека : A_FLAC
Продолжительность : 25 м. 40 с.
Вид битрейта : Переменный
Битрейт : 1 313 Кбит/сек
Каналы : 2 канала
Channel layout : L R
Частота : 48,0 КГц
Частота кадров : 11,719 кадров/сек (4096 SPF)
Битовая глубина : 24 бит
Метод сжатия : Без потерь
Размер потока : 241 Мбайт (12%)
Библиотека кодирования : libFLAC 1.2.1 (UTC 2007-09-17)
Язык : Japanese
Default : Да
Forced : Нет
Меню
00:00:00.000 : en:00:00:00.000
00:01:08.527 : en:00:01:08.527
00:14:45.009 : en:00:14:45.009
00:24:00.022 : en:00:24:00.022
ЦитатаDeadmauvlad писал:Аниме будет интересно для просмотра как подростками, так и людьми постарше. Очень трогательная история любви человека и андроида. Завораживает с первых серий. Смотрится легко.
upd: 13 Серия в озвучке Anilibria >> Скачать с гугл диска
[korsars.pro].t62163.torrent 
Торрент: Зарегистрирован [ 2022-07-23 13:00 ] · CFBD9DF1E0E864D1824BF638DEB40FA02F07A9D0

Скачать .torrent

Размер .torrent файла 57 KB

Статус: проверено
.torrent скачан: 8 раз
Размер: 27,22 GB
Правила
Похожие темы

Вы не зарегистрированы на нашем сайте. Вам доступна для скачивания только часть контента. Чтобы увидеть весь контент сайта, пожалуйста, зарегистрироруйтесь.

Дешевый и быстрый Сидбокс

Ключи и пин-коды

Игры, Кредитные карты, IP-телефония, Интернет провайдеры, Мобильная связь, Спутниковое ТВ

Электронные книги

Бизнес и экономика, Дом, быт, семья, досуг, Санкт-Петербург, Компьютеры и интернет, Наука и образование, Техническая литература, Юридическая литература

Цифровые товары

iTunes & App Store, Базы данных, Дизайн, Доступ к ресурсам, Kарты продления, ключи, Фотографии, Шаблоны для сайтов

Программное обеспечение

Безопасность, Игры, PC, Интернет, Мобильная связь, Программирование, Продвижение сайтов (SEO), Утилиты
У Вас отключен VIP статус, поэтому Вам показывается реклама на сайте. Вы можете поддержать наш ресурс и приобрести VIP статус, тем самым отключив показ рекламы на сайте, а ещё VIP пользователи получают возможность

смотреть аниме онлайн в HD качестве

(не распространяется на раздел Flarrow Films), а так же получить 5 инвайтов, которыми можно поделиться с друзьями или знакомыми.
Дешевый и быстрый Сидбокс

Ключи и пин-коды

Игры, Кредитные карты, IP-телефония, Интернет провайдеры, Мобильная связь, Спутниковое ТВ

Электронные книги

Бизнес и экономика, Дом, быт, семья, досуг, Санкт-Петербург, Компьютеры и интернет, Наука и образование, Техническая литература, Юридическая литература

Цифровые товары

iTunes & App Store, Базы данных, Дизайн, Доступ к ресурсам, Kарты продления, ключи, Фотографии, Шаблоны для сайтов

Программное обеспечение

Безопасность, Игры, PC, Интернет, Мобильная связь, Программирование, Продвижение сайтов (SEO), Утилиты
[Профиль] [ЛС]
Показать сообщения:    
Ответить на тему

Текущее время: 04-Окт 18:25

Часовой пояс: UTC + 4



Вы не можете начинать темы
Вы не можете отвечать на сообщения
Вы не можете редактировать свои сообщения
Вы не можете удалять свои сообщения
Вы не можете голосовать в опросах
Вы не можете прикреплять файлы к сообщениям
Вы можете скачивать файлы
Анализ сайта korsars.pro Яндекс.Метрика