Городская дьяволица / Machikado Mazoku [02x01-06 из 12] (2022) WEBRip-HEVC 720p | L1

Ответить на тему
Статистика раздачи [Обновить пиров]
Размер:  962 MB   |    Зарегистрирован:  12 дней   |    .torrent скачан:  2 раза
Раздают:  5  [  0 KB/s  ]   Подробная статистика пиров
 
   
 
 
Автор Сообщение

4udaki ®

Оффлайн

Медали


Пол: Мужской

Стаж: 7 лет 6 месяцев

Наличие запрета:

Сообщений: 19767

Откуда: korsars.pro

Отдача: 2 Mb/s

Загрузка: 20 Mb/s

Нажми


Скачать Adguard бесплатно

Создавать темы 13-Май-2022 21:00

[Цитировать]

Информация о фильме
Название: Городская дьяволица
Оригинальное название: Machikado Mazoku
Год выхода: 2022
Жанр: Повседневность, комедия
Режиссер: Хироаки Сакурай
В ролях: Кономи Кохара, Акари Кито, Томоё Такаянаги, Минами Такахаси
О фильме: Однажды утром пятнадцатилетняя Юко Ёсида просыпается с рогами и хвостом, и неожиданно для себя узнаёт, что она является потомком клана Тьмы, который давным-давно был изгнан и проклят кланом Света. Теперь на Юко возложена важная миссия — снять проклятие и восстановить честь своего клана. Нужно-то всего ничего — облить родовой тотем кровью какой-нибудь девочки-волшебницы! На своё счастье Юко находит жертву тем же утром. Но вот незадача: как вы предлагаете окропить тотем кровью девочки-волшебницы, которая в сто раз сильнее нашей героини, спасает ей жизнь, да в придачу ещё и кормит разными вкусностями? Держись, Юко — жизнь современной дьяволицы совсем не проста!

Страна: Япония
Студия: J.C.Staff
Продолжительность: 6 серий x ~ 00:24:00 мин
Перевод: Любительский (одноголосый, закадровый) - AnimeVost; Субтитры - YRsub
Субтитры добавляются по мере готовности
Файл
Кодек: HEVC
Качество: WEBRip-HEVC 720p
Видео: 1280x720, ~ 617 kb/s, 23.976 fps, 8 bit
Звук:
Аудио 1: Japan (AAC, 2 ch) ~ 128 kbps, 48kHz | Original
Аудио 2: Russian (AC3, 2 ch) ~ 128 kbps, 44,1kHz | VO AnimeVost (отдельными файлами .ac3)
Субтитры: ASS, русские внешние (1-4), английские в контейнере MKV

World-art

Городская дьяволица 2, Machikado Mazoku 2-Choume, The Demon Girl Next Door 2 http://www.world-art.ru/animation/animation.php?id=10582

MediaInfo

Общее
Уникальный идентификатор : 166598111027228476059519558686494337709 (0x7D55A10AC4D02A5C3F920F8E8602AAAD)
Полное имя : F:DownloadTMachikado Mazoku 2 [720p x265]Machikado Mazoku 2 [720p x265] - 01.mkv
Формат : Matroska
Версия формата : Version 4
Размер файла : 132 Мбайт
Продолжительность : 24 м. 41 с.
Общий поток : 748 Кбит/сек
Дата кодирования : UTC 2022-04-29 07:01:23
Программа кодирования : mkvmerge v49.0.0 ('Sick Of Losing Soulmates') 64-bit
Библиотека кодирования : libebml v1.4.0 + libmatroska v1.6.1
Видео
Идентификатор : 1
Формат : HEVC
Формат/Информация : High Efficiency Video Coding
Профиль формата : Main@L3.1@Main
Идентификатор кодека : V_MPEGH/ISO/HEVC
Продолжительность : 24 м. 41 с.
Битрейт : 617 Кбит/сек
Ширина : 1 280 пикселей
Высота : 720 пикселей
Соотношение сторон : 16:9
Режим частоты кадров : Постоянный
Частота кадров : 23,976 (24000/1001) кадра/сек
Цветовое пространство : YUV
Субдискретизация насыщенности : 4:2:0 (Type 0)
Битовая глубина : 8 бит
Бит/(Пиксели*Кадры) : 0.028
Размер потока : 109 Мбайт (82%)
Заголовок : Japanese
Язык : Japanese
Default : Да
Forced : Нет
Цветовой диапазон : Limited
Основные цвета : BT.709
Характеристики трансфера : BT.709
Коэффициенты матрицы : BT.709
Аудио
Идентификатор : 2
Формат : AAC LC
Формат/Информация : Advanced Audio Codec Low Complexity
Идентификатор кодека : A_AAC-2
Продолжительность : 24 м. 41 с.
Битрейт : 128 Кбит/сек
Каналы : 2 канала
Channel layout : L R
Частота : 48,0 КГц
Частота кадров : 46,875 кадров/сек (1024 SPF)
Метод сжатия : С потерями
Задержка видео : -42 мс.
Размер потока : 22,7 Мбайт (17%)
Default : Да
Forced : Нет
Текст
Идентификатор : 3
Формат : ASS
Идентификатор кодека : S_TEXT/ASS
Идентификатор кодека/Информация : Advanced Sub Station Alpha
Продолжительность : 24 м. 4 с.
Битрейт : 260 бит/сек
Count of elements : 714
Метод сжатия : Без потерь
Размер потока : 45,9 Кбайт (0%)
Заголовок : English
Язык : English
Default : Да
Forced : Да

Скриншоты

[korsars.pro].t57245.torrent 
Торрент: Зарегистрирован [ 2022-05-13 21:00 ] · 8C4DF7FE57B5EFEA2C9BADC61902008208F66D48

Скачать .torrent

Размер .torrent файла 21 KB

Статус: проверено
.torrent скачан: 2 раз
Размер: 962 MB
Правила
Похожие темы

Вы не зарегистрированы на нашем сайте. Вам доступна для скачивания только часть контента. Чтобы увидеть весь контент сайта, пожалуйста, зарегистрироруйтесь.

Дешевый и быстрый Сидбокс

Ключи и пин-коды

Игры, Кредитные карты, IP-телефония, Интернет провайдеры, Мобильная связь, Спутниковое ТВ

Электронные книги

Бизнес и экономика, Дом, быт, семья, досуг, Санкт-Петербург, Компьютеры и интернет, Наука и образование, Техническая литература, Юридическая литература

Цифровые товары

iTunes & App Store, Базы данных, Дизайн, Доступ к ресурсам, Kарты продления, ключи, Фотографии, Шаблоны для сайтов

Программное обеспечение

Безопасность, Игры, PC, Интернет, Мобильная связь, Программирование, Продвижение сайтов (SEO), Утилиты
У Вас отключен VIP статус, поэтому Вам показывается реклама на сайте. Вы можете поддержать наш ресурс и приобрести VIP статус, тем самым отключив показ рекламы на сайте, а ещё VIP пользователи получают возможность

смотреть аниме онлайн в HD качестве

(не распространяется на раздел Flarrow Films), а так же получить 5 инвайтов, которыми можно поделиться с друзьями или знакомыми.
Дешевый и быстрый Сидбокс

Ключи и пин-коды

Игры, Кредитные карты, IP-телефония, Интернет провайдеры, Мобильная связь, Спутниковое ТВ

Электронные книги

Бизнес и экономика, Дом, быт, семья, досуг, Санкт-Петербург, Компьютеры и интернет, Наука и образование, Техническая литература, Юридическая литература

Цифровые товары

iTunes & App Store, Базы данных, Дизайн, Доступ к ресурсам, Kарты продления, ключи, Фотографии, Шаблоны для сайтов

Программное обеспечение

Безопасность, Игры, PC, Интернет, Мобильная связь, Программирование, Продвижение сайтов (SEO), Утилиты
[Профиль] [ЛС]
Показать сообщения:    
Ответить на тему

Текущее время: 25-Май 23:15

Часовой пояс: UTC + 4



Вы не можете начинать темы
Вы не можете отвечать на сообщения
Вы не можете редактировать свои сообщения
Вы не можете удалять свои сообщения
Вы не можете голосовать в опросах
Вы не можете прикреплять файлы к сообщениям
Вы можете скачивать файлы
Анализ сайта korsars.pro Яндекс.Метрика