Наш общий отец / Our Father (2022) WEB-DL 1080p | P | Netflix

Ответить на тему
Статистика раздачи [Обновить пиров]
Размер:  3,86 GB   |    Зарегистрирован:  12 дней   |    .torrent скачан:  7 раз
Раздают:  24  [  0 KB/s  ]   Качают:  8  [  0 KB/s  ]   Подробная статистика пиров
 
   
 
 
Автор Сообщение

4udaki ®

Оффлайн

Медали


Пол: Мужской

Стаж: 7 лет 6 месяцев

Наличие запрета:

Сообщений: 19767

Откуда: korsars.pro

Отдача: 2 Mb/s

Загрузка: 20 Mb/s

Нажми


Скачать Adguard бесплатно

Создавать темы 13-Май-2022 12:57

[Цитировать]

- Наш общий отец / Our Father - Информация о фильме:
Название: Наш общий отец
Оригинальное название: Our Father
Год выхода: 2022
Жанр: документальный, криминал, драма
Режиссер: Люси Джордан
В ролях: Дональд Клайн, Джейкоба Баллард, Дебби Пирс, Роберт Колвер, Дайанна Кислер, Лиз Уайт, Анджела Ганот, Джули Хармон, Мэтт Уайт, Шерин Фарбер, Марк Фарбер, Хизер Вук, Лис Шепард-Стидхэм, Джейсон Хаятт, Кит Бойл, Джанет Картер Тим ДеЛэйни, Кэрри Фостер, Лесли Кох Фумберг, Ян Шор
Описание: Однажды Джейкоба Баллард решила пройти тест на ДНК в надежде найти одного или двух единокровных братьев и сестер с одним и тем же донором спермы. "Повзрослев, я почувствовала себя другой", - говорит она в трейлере документального фильма. Но когда она нашла семь совпадений, то поняла, что наткнулась на важное открытие. Джейкоба обнаруживает шокирующую схему с участием донорской спермы и популярного врача-репродуктолога.

Страна: США
Студия: Blumhouse Television, Netflix
Продолжительность: 01:37:24
Переводы:
русский, профессиональный (многоголосый) - Пифагор
украинский, профессиональный (многоголосый) - TAK TREBA PRODUCTION

Информация о файле:
Кодек: AVC
Формат: MKV
Качество: WEB-DL 1080
Видео: MPEG-4 AVC, 4247 Кбит/с, 1920х1080, 23.976 кадр/с
Аудио RU: AC3, 6 ch, 448 Кбит/с
Аудио UA: AAC, 6 ch, 332 Кбит/с
Аудио EN: E-AC3, 6 ch, 640 Кбит/с
Субтитры: Русские, английские, арабские, чешские, датские, немецкие, греческие, испанские, финские, французские, иврит, хорватские, венгерские, итальянские, японские, корейские, малайские, голландские, польские, португальские, бразильские, румынские, шведские, тайские, турецкие, украинские, вьетнамские, китайские

MediaInfo

Общее
Уникальный идентификатор                 : 315265932207241036378623619847009733498 (0xED2E028AA95EEFCF5DFE7BDA010E0B7A)
Полное имя                               : E:\кинозал\2022_Наш общий отец\2022_Наш общий отец.mkv
Формат                                   : Matroska
Версия формата                           : Version 4
Размер файла                             : 3,86 Гбайт
Продолжительность                        : 1 ч. 37 м.
Режим общего битрейта                    : Переменный
Общий поток                              : 5 675 Кбит/сек
Дата кодирования                         : UTC 2022-05-12 07:36:56
Программа кодирования                    : mkvmerge v66.0.0 ('Josie') 64-bit
Библиотека кодирования                   : libebml v1.4.2 + libmatroska v1.6.4
Видео
Идентификатор                            : 1
Формат                                   : AVC
Формат/Информация                        : Advanced Video Codec
Профиль формата                          : High@L4
Настройки формата                        : CABAC / 4 Ref Frames
Параметр CABAC формата                   : Да
Параметр RefFrames формата               : 4 кадра
Идентификатор кодека                     : V_MPEG4/ISO/AVC
Продолжительность                        : 1 ч. 37 м.
Вид битрейта                             : Переменный
Битрейт                                  : 4 247 Кбит/сек
Максимальный битрейт                     : 20,0 Мбит/сек
Ширина                                   : 1 920 пикселей
Высота                                   : 1 080 пикселей
Соотношение сторон                       : 16:9
Режим частоты кадров                     : Постоянный
Частота кадров                           : 23,976 (24000/1001) кадра/сек
Цветовое пространство                    : YUV
Субдискретизация насыщенности            : 4:2:0
Битовая глубина                          : 8 бит
Тип развёртки                            : Прогрессивная
Бит/(Пиксели*Кадры)                      : 0.085
Размер потока                            : 2,89 Гбайт (75%)
Библиотека кодирования                   : x264 core 148 r2727 7d026e8
Настройки программы                      : cabac=1 / ref=4 / deblock=1:0:0 / analyse=0x3:0x111 / me=umh / subme=10 / psy=1 / psy_rd=1.00:0.00 / mixed_ref=1 / me_range=120 / chroma_me=1 / trellis=2 / 8x8dct=1 / cqm=0 / deadzone=21,11 / fast_pskip=1 / chroma_qp_offset=-2 / threads=6 / lookahead_threads=1 / sliced_threads=0 / nr=0 / decimate=1 / interlaced=0 / bluray_compat=0 / stitchable=1 / constrained_intra=0 / bframes=16 / b_pyramid=2 / b_adapt=2 / b_bias=0 / direct=3 / weightb=1 / open_gop=0 / weightp=2 / keyint=240 / keyint_min=121 / scenecut=0 / intra_refresh=0 / rc_lookahead=240 / rc=crf / mbtree=1 / crf=16.0 / qcomp=0.50 / qpmin=6 / qpmax=51 / qpstep=4 / vbv_maxrate=20000 / vbv_bufsize=25000 / crf_max=0.0 / nal_hrd=vbr / filler=0 / ip_ratio=1.40 / aq=1:0.80
Язык                                     : English
Default                                  : Нет
Forced                                   : Нет
Аудио #1
Идентификатор                            : 2
Формат                                   : AC-3
Формат/Информация                        : Audio Coding 3
Коммерческое название                    : Dolby Digital
Идентификатор кодека                     : A_AC3
Продолжительность                        : 1 ч. 37 м.
Вид битрейта                             : Постоянный
Битрейт                                  : 448 Кбит/сек
Каналы                                   : 6 каналов
Channel layout                           : L R C LFE Ls Rs
Частота                                  : 48,0 КГц
Частота кадров                           : 31,250 кадров/сек (1536 SPF)
Метод сжатия                             : С потерями
Задержка видео                           : 37 мс.
Размер потока                            : 312 Мбайт (8%)
Заголовок                                : Пифагор
Язык                                     : Russian
Service kind                             : Complete Main
Default                                  : Да
Forced                                   : Нет
Аудио #2
Идентификатор                            : 3
Формат                                   : AAC LC
Формат/Информация                        : Advanced Audio Codec Low Complexity
Идентификатор кодека                     : A_AAC-2
Продолжительность                        : 1 ч. 37 м.
Битрейт                                  : 332 Кбит/сек
Каналы                                   : 6 каналов
Channel layout                           : C L R Ls Rs LFE
Частота                                  : 48,0 КГц
Частота кадров                           : 46,875 кадров/сек (1024 SPF)
Метод сжатия                             : С потерями
Размер потока                            : 231 Мбайт (6%)
Заголовок                                : Так Треба Продакшн
Язык                                     : Ukrainian
Default                                  : Нет
Forced                                   : Нет
Аудио #3
Идентификатор                            : 4
Формат                                   : E-AC-3
Формат/Информация                        : Enhanced AC-3
Коммерческое название                    : Dolby Digital Plus
Идентификатор кодека                     : A_EAC3
Продолжительность                        : 1 ч. 37 м.
Вид битрейта                             : Постоянный
Битрейт                                  : 640 Кбит/сек
Каналы                                   : 6 каналов
Channel layout                           : L R C LFE Ls Rs
Частота                                  : 48,0 КГц
Частота кадров                           : 31,250 кадров/сек (1536 SPF)
Метод сжатия                             : С потерями
Размер потока                            : 446 Мбайт (11%)
Язык                                     : English
Service kind                             : Complete Main
Default                                  : Нет
Forced                                   : Нет
Текст #1
Идентификатор                            : 5
Формат                                   : UTF-8
Идентификатор кодека                     : S_TEXT/UTF8
Идентификатор кодека/Информация          : UTF-8 Plain Text
Продолжительность                        : 56 м. 17 с.
Битрейт                                  : 13 бит/сек
Count of elements                        : 116
Размер потока                            : 5,69 Кбайт (0%)
Заголовок                                : Forced
Язык                                     : English
Default                                  : Да
Forced                                   : Нет
Текст #2
Идентификатор                            : 6
Формат                                   : UTF-8
Идентификатор кодека                     : S_TEXT/UTF8
Идентификатор кодека/Информация          : UTF-8 Plain Text
Продолжительность                        : 1 ч. 31 м.
Битрейт                                  : 83 бит/сек
Count of elements                        : 1399
Размер потока                            : 56,1 Кбайт (0%)
Язык                                     : English
Default                                  : Нет
Forced                                   : Нет
Текст #3
Идентификатор                            : 7
Формат                                   : UTF-8
Идентификатор кодека                     : S_TEXT/UTF8
Идентификатор кодека/Информация          : UTF-8 Plain Text
Продолжительность                        : 1 ч. 35 м.
Битрейт                                  : 90 бит/сек
Count of elements                        : 1627
Размер потока                            : 63,4 Кбайт (0%)
Заголовок                                : SDH
Язык                                     : English
Default                                  : Нет
Forced                                   : Нет
Текст #4
Идентификатор                            : 8
Формат                                   : UTF-8
Идентификатор кодека                     : S_TEXT/UTF8
Идентификатор кодека/Информация          : UTF-8 Plain Text
Продолжительность                        : 1 ч. 35 м.
Битрейт                                  : 116 бит/сек
Count of elements                        : 1415
Размер потока                            : 81,5 Кбайт (0%)
Язык                                     : Arabic
Default                                  : Нет
Forced                                   : Нет
Текст #5
Идентификатор                            : 9
Формат                                   : UTF-8
Идентификатор кодека                     : S_TEXT/UTF8
Идентификатор кодека/Информация          : UTF-8 Plain Text
Продолжительность                        : 1 ч. 35 м.
Битрейт                                  : 76 бит/сек
Count of elements                        : 1310
Размер потока                            : 53,4 Кбайт (0%)
Язык                                     : Czech
Default                                  : Нет
Forced                                   : Нет
Текст #6
Идентификатор                            : 10
Формат                                   : UTF-8
Идентификатор кодека                     : S_TEXT/UTF8
Идентификатор кодека/Информация          : UTF-8 Plain Text
Продолжительность                        : 1 ч. 35 м.
Битрейт                                  : 75 бит/сек
Count of elements                        : 1168
Размер потока                            : 52,6 Кбайт (0%)
Язык                                     : Danish
Default                                  : Нет
Forced                                   : Нет
Текст #7
Идентификатор                            : 11
Формат                                   : UTF-8
Идентификатор кодека                     : S_TEXT/UTF8
Идентификатор кодека/Информация          : UTF-8 Plain Text
Продолжительность                        : 1 ч. 35 м.
Битрейт                                  : 76 бит/сек
Count of elements                        : 1252
Размер потока                            : 53,3 Кбайт (0%)
Язык                                     : German
Default                                  : Нет
Forced                                   : Нет
Текст #8
Идентификатор                            : 12
Формат                                   : UTF-8
Идентификатор кодека                     : S_TEXT/UTF8
Идентификатор кодека/Информация          : UTF-8 Plain Text
Продолжительность                        : 1 ч. 35 м.
Битрейт                                  : 123 бит/сек
Count of elements                        : 1416
Размер потока                            : 86,5 Кбайт (0%)
Язык                                     : Greek
Default                                  : Нет
Forced                                   : Нет
Текст #9
Идентификатор                            : 13
Формат                                   : UTF-8
Идентификатор кодека                     : S_TEXT/UTF8
Идентификатор кодека/Информация          : UTF-8 Plain Text
Продолжительность                        : 1 ч. 33 м.
Битрейт                                  : 73 бит/сек
Count of elements                        : 1405
Размер потока                            : 50,2 Кбайт (0%)
Заголовок                                : Latin American
Язык                                     : Spanish
Default                                  : Нет
Forced                                   : Нет
Текст #10
Идентификатор                            : 14
Формат                                   : UTF-8
Идентификатор кодека                     : S_TEXT/UTF8
Идентификатор кодека/Информация          : UTF-8 Plain Text
Продолжительность                        : 1 ч. 35 м.
Битрейт                                  : 76 бит/сек
Count of elements                        : 1311
Размер потока                            : 53,8 Кбайт (0%)
Заголовок                                : Latin American
Язык                                     : Spanish
Default                                  : Нет
Forced                                   : Нет
Текст #11
Идентификатор                            : 15
Формат                                   : UTF-8
Идентификатор кодека                     : S_TEXT/UTF8
Идентификатор кодека/Информация          : UTF-8 Plain Text
Продолжительность                        : 1 ч. 34 м.
Битрейт                                  : 79 бит/сек
Count of elements                        : 1559
Размер потока                            : 55,2 Кбайт (0%)
Заголовок                                : Latin American (SDH)
Язык                                     : Spanish
Default                                  : Нет
Forced                                   : Нет
Текст #12
Идентификатор                            : 16
Формат                                   : UTF-8
Идентификатор кодека                     : S_TEXT/UTF8
Идентификатор кодека/Информация          : UTF-8 Plain Text
Продолжительность                        : 1 ч. 35 м.
Битрейт                                  : 75 бит/сек
Count of elements                        : 1431
Размер потока                            : 52,9 Кбайт (0%)
Язык                                     : Spanish
Default                                  : Нет
Forced                                   : Нет
Текст #13
Идентификатор                            : 17
Формат                                   : UTF-8
Идентификатор кодека                     : S_TEXT/UTF8
Идентификатор кодека/Информация          : UTF-8 Plain Text
Продолжительность                        : 1 ч. 35 м.
Битрейт                                  : 72 бит/сек
Count of elements                        : 1291
Размер потока                            : 50,9 Кбайт (0%)
Язык                                     : Finnish
Default                                  : Нет
Forced                                   : Нет
Текст #14
Идентификатор                            : 18
Формат                                   : UTF-8
Идентификатор кодека                     : S_TEXT/UTF8
Идентификатор кодека/Информация          : UTF-8 Plain Text
Продолжительность                        : 1 ч. 35 м.
Битрейт                                  : 74 бит/сек
Count of elements                        : 1429
Размер потока                            : 52,0 Кбайт (0%)
Язык                                     : French
Default                                  : Нет
Forced                                   : Нет
Текст #15
Идентификатор                            : 19
Формат                                   : UTF-8
Идентификатор кодека                     : S_TEXT/UTF8
Идентификатор кодека/Информация          : UTF-8 Plain Text
Продолжительность                        : 1 ч. 33 м.
Битрейт                                  : 117 бит/сек
Count of elements                        : 1405
Размер потока                            : 80,4 Кбайт (0%)
Язык                                     : Hebrew
Default                                  : Нет
Forced                                   : Нет
Текст #16
Идентификатор                            : 20
Формат                                   : UTF-8
Идентификатор кодека                     : S_TEXT/UTF8
Идентификатор кодека/Информация          : UTF-8 Plain Text
Продолжительность                        : 1 ч. 35 м.
Битрейт                                  : 67 бит/сек
Count of elements                        : 1323
Размер потока                            : 47,2 Кбайт (0%)
Язык                                     : Croatian
Default                                  : Нет
Forced                                   : Нет
Текст #17
Идентификатор                            : 21
Формат                                   : UTF-8
Идентификатор кодека                     : S_TEXT/UTF8
Идентификатор кодека/Информация          : UTF-8 Plain Text
Продолжительность                        : 1 ч. 35 м.
Битрейт                                  : 82 бит/сек
Count of elements                        : 1396
Размер потока                            : 58,0 Кбайт (0%)
Язык                                     : Hungarian
Default                                  : Нет
Forced                                   : Нет
Текст #18
Идентификатор                            : 22
Формат                                   : UTF-8
Идентификатор кодека                     : S_TEXT/UTF8
Идентификатор кодека/Информация          : UTF-8 Plain Text
Продолжительность                        : 1 ч. 35 м.
Битрейт                                  : 80 бит/сек
Count of elements                        : 1426
Размер потока                            : 56,1 Кбайт (0%)
Язык                                     : Indonesian
Default                                  : Нет
Forced                                   : Нет
Текст #19
Идентификатор                            : 23
Формат                                   : UTF-8
Идентификатор кодека                     : S_TEXT/UTF8
Идентификатор кодека/Информация          : UTF-8 Plain Text
Продолжительность                        : 1 ч. 35 м.
Битрейт                                  : 75 бит/сек
Count of elements                        : 1339
Размер потока                            : 53,0 Кбайт (0%)
Язык                                     : Italian
Default                                  : Нет
Forced                                   : Нет
Текст #20
Идентификатор                            : 24
Формат                                   : UTF-8
Идентификатор кодека                     : S_TEXT/UTF8
Идентификатор кодека/Информация          : UTF-8 Plain Text
Продолжительность                        : 1 ч. 35 м.
Битрейт                                  : 100 бит/сек
Count of elements                        : 1469
Размер потока                            : 70,2 Кбайт (0%)
Язык                                     : Japanese
Default                                  : Нет
Forced                                   : Нет
Текст #21
Идентификатор                            : 25
Формат                                   : UTF-8
Идентификатор кодека                     : S_TEXT/UTF8
Идентификатор кодека/Информация          : UTF-8 Plain Text
Продолжительность                        : 1 ч. 35 м.
Битрейт                                  : 94 бит/сек
Count of elements                        : 1466
Размер потока                            : 66,2 Кбайт (0%)
Язык                                     : Korean
Default                                  : Нет
Forced                                   : Нет
Текст #22
Идентификатор                            : 26
Формат                                   : UTF-8
Идентификатор кодека                     : S_TEXT/UTF8
Идентификатор кодека/Информация          : UTF-8 Plain Text
Продолжительность                        : 1 ч. 35 м.
Битрейт                                  : 73 бит/сек
Count of elements                        : 1418
Размер потока                            : 51,6 Кбайт (0%)
Язык                                     : Malay
Default                                  : Нет
Forced                                   : Нет
Текст #23
Идентификатор                            : 27
Формат                                   : UTF-8
Идентификатор кодека                     : S_TEXT/UTF8
Идентификатор кодека/Информация          : UTF-8 Plain Text
Продолжительность                        : 1 ч. 35 м.
Битрейт                                  : 70 бит/сек
Count of elements                        : 1158
Размер потока                            : 49,6 Кбайт (0%)
Язык                                     : Norwegian Bokmal
Default                                  : Нет
Forced                                   : Нет
Текст #24
Идентификатор                            : 28
Формат                                   : UTF-8
Идентификатор кодека                     : S_TEXT/UTF8
Идентификатор кодека/Информация          : UTF-8 Plain Text
Продолжительность                        : 1 ч. 35 м.
Битрейт                                  : 73 бит/сек
Count of elements                        : 1252
Размер потока                            : 51,7 Кбайт (0%)
Язык                                     : Dutch
Default                                  : Нет
Forced                                   : Нет
Текст #25
Идентификатор                            : 29
Формат                                   : UTF-8
Идентификатор кодека                     : S_TEXT/UTF8
Идентификатор кодека/Информация          : UTF-8 Plain Text
Продолжительность                        : 1 ч. 35 м.
Битрейт                                  : 64 бит/сек
Count of elements                        : 1364
Размер потока                            : 45,4 Кбайт (0%)
Язык                                     : Polish
Default                                  : Нет
Forced                                   : Нет
Текст #26
Идентификатор                            : 30
Формат                                   : UTF-8
Идентификатор кодека                     : S_TEXT/UTF8
Идентификатор кодека/Информация          : UTF-8 Plain Text
Продолжительность                        : 1 ч. 35 м.
Битрейт                                  : 75 бит/сек
Count of elements                        : 1428
Размер потока                            : 52,7 Кбайт (0%)
Заголовок                                : Brazilian
Язык                                     : Portuguese
Default                                  : Нет
Forced                                   : Нет
Текст #27
Идентификатор                            : 31
Формат                                   : UTF-8
Идентификатор кодека                     : S_TEXT/UTF8
Идентификатор кодека/Информация          : UTF-8 Plain Text
Продолжительность                        : 1 ч. 35 м.
Битрейт                                  : 79 бит/сек
Count of elements                        : 1375
Размер потока                            : 56,0 Кбайт (0%)
Язык                                     : Portuguese
Default                                  : Нет
Forced                                   : Нет
Текст #28
Идентификатор                            : 32
Формат                                   : UTF-8
Идентификатор кодека                     : S_TEXT/UTF8
Идентификатор кодека/Информация          : UTF-8 Plain Text
Продолжительность                        : 1 ч. 35 м.
Битрейт                                  : 85 бит/сек
Count of elements                        : 1286
Размер потока                            : 59,7 Кбайт (0%)
Язык                                     : Romanian
Default                                  : Нет
Forced                                   : Нет
Текст #29
Идентификатор                            : 33
Формат                                   : UTF-8
Идентификатор кодека                     : S_TEXT/UTF8
Идентификатор кодека/Информация          : UTF-8 Plain Text
Продолжительность                        : 1 ч. 35 м.
Битрейт                                  : 132 бит/сек
Count of elements                        : 1370
Размер потока                            : 92,6 Кбайт (0%)
Язык                                     : Russian
Default                                  : Нет
Forced                                   : Нет
Текст #30
Идентификатор                            : 34
Формат                                   : UTF-8
Идентификатор кодека                     : S_TEXT/UTF8
Идентификатор кодека/Информация          : UTF-8 Plain Text
Продолжительность                        : 1 ч. 33 м.
Битрейт                                  : 69 бит/сек
Count of elements                        : 1116
Размер потока                            : 47,3 Кбайт (0%)
Язык                                     : Swedish
Default                                  : Нет
Forced                                   : Нет
Текст #31
Идентификатор                            : 35
Формат                                   : UTF-8
Идентификатор кодека                     : S_TEXT/UTF8
Идентификатор кодека/Информация          : UTF-8 Plain Text
Продолжительность                        : 1 ч. 35 м.
Битрейт                                  : 208 бит/сек
Count of elements                        : 1458
Размер потока                            : 146 Кбайт (0%)
Язык                                     : Thai
Default                                  : Нет
Forced                                   : Нет
Текст #32
Идентификатор                            : 36
Формат                                   : UTF-8
Идентификатор кодека                     : S_TEXT/UTF8
Идентификатор кодека/Информация          : UTF-8 Plain Text
Продолжительность                        : 1 ч. 35 м.
Битрейт                                  : 74 бит/сек
Count of elements                        : 1243
Размер потока                            : 52,5 Кбайт (0%)
Язык                                     : Turkish
Default                                  : Нет
Forced                                   : Нет
Текст #33
Идентификатор                            : 37
Формат                                   : UTF-8
Идентификатор кодека                     : S_TEXT/UTF8
Идентификатор кодека/Информация          : UTF-8 Plain Text
Продолжительность                        : 1 ч. 35 м.
Битрейт                                  : 117 бит/сек
Count of elements                        : 1432
Размер потока                            : 82,3 Кбайт (0%)
Язык                                     : Ukrainian
Default                                  : Нет
Forced                                   : Нет
Текст #34
Идентификатор                            : 38
Формат                                   : UTF-8
Идентификатор кодека                     : S_TEXT/UTF8
Идентификатор кодека/Информация          : UTF-8 Plain Text
Продолжительность                        : 1 ч. 35 м.
Битрейт                                  : 109 бит/сек
Count of elements                        : 1423
Размер потока                            : 76,7 Кбайт (0%)
Язык                                     : Vietnamese
Default                                  : Нет
Forced                                   : Нет
Текст #35
Идентификатор                            : 39
Формат                                   : UTF-8
Идентификатор кодека                     : S_TEXT/UTF8
Идентификатор кодека/Информация          : UTF-8 Plain Text
Продолжительность                        : 1 ч. 35 м.
Битрейт                                  : 75 бит/сек
Count of elements                        : 1431
Размер потока                            : 53,2 Кбайт (0%)
Заголовок                                : Simplified
Язык                                     : Chinese
Default                                  : Нет
Forced                                   : Нет
Текст #36
Идентификатор                            : 40
Формат                                   : UTF-8
Идентификатор кодека                     : S_TEXT/UTF8
Идентификатор кодека/Информация          : UTF-8 Plain Text
Продолжительность                        : 1 ч. 35 м.
Битрейт                                  : 69 бит/сек
Count of elements                        : 1311
Размер потока                            : 48,4 Кбайт (0%)
Заголовок                                : Traditional
Язык                                     : Chinese
Default                                  : Нет
Forced                                   : Нет
[korsars.pro].t57214.torrent 
Торрент: Зарегистрирован [ 2022-05-13 12:57 ] · 1F0772703654A57B06CA17E30298568341671A5A

Скачать .torrent

Размер .torrent файла 20 KB

Статус: проверено
.torrent скачан: 7 раз
Размер: 3,86 GB
Правила
Jordan7(13-Май-22)
Похожие темы

Вы не зарегистрированы на нашем сайте. Вам доступна для скачивания только часть контента. Чтобы увидеть весь контент сайта, пожалуйста, зарегистрироруйтесь.

Дешевый и быстрый Сидбокс

Ключи и пин-коды

Игры, Кредитные карты, IP-телефония, Интернет провайдеры, Мобильная связь, Спутниковое ТВ

Электронные книги

Бизнес и экономика, Дом, быт, семья, досуг, Санкт-Петербург, Компьютеры и интернет, Наука и образование, Техническая литература, Юридическая литература

Цифровые товары

iTunes & App Store, Базы данных, Дизайн, Доступ к ресурсам, Kарты продления, ключи, Фотографии, Шаблоны для сайтов

Программное обеспечение

Безопасность, Игры, PC, Интернет, Мобильная связь, Программирование, Продвижение сайтов (SEO), Утилиты
У Вас отключен VIP статус, поэтому Вам показывается реклама на сайте. Вы можете поддержать наш ресурс и приобрести VIP статус, тем самым отключив показ рекламы на сайте, а ещё VIP пользователи получают возможность

смотреть аниме онлайн в HD качестве

(не распространяется на раздел Flarrow Films), а так же получить 5 инвайтов, которыми можно поделиться с друзьями или знакомыми.
Дешевый и быстрый Сидбокс

Ключи и пин-коды

Игры, Кредитные карты, IP-телефония, Интернет провайдеры, Мобильная связь, Спутниковое ТВ

Электронные книги

Бизнес и экономика, Дом, быт, семья, досуг, Санкт-Петербург, Компьютеры и интернет, Наука и образование, Техническая литература, Юридическая литература

Цифровые товары

iTunes & App Store, Базы данных, Дизайн, Доступ к ресурсам, Kарты продления, ключи, Фотографии, Шаблоны для сайтов

Программное обеспечение

Безопасность, Игры, PC, Интернет, Мобильная связь, Программирование, Продвижение сайтов (SEO), Утилиты
[Профиль] [ЛС]
Показать сообщения:    
Ответить на тему

Текущее время: 25-Май 23:31

Часовой пояс: UTC + 4



Вы не можете начинать темы
Вы не можете отвечать на сообщения
Вы не можете редактировать свои сообщения
Вы не можете удалять свои сообщения
Вы не можете голосовать в опросах
Вы не можете прикреплять файлы к сообщениям
Вы можете скачивать файлы
Анализ сайта korsars.pro Яндекс.Метрика