Волк как я / Wolf Like Me [S01] (2022) WEB-DL 1080p | LostFilm

Ответить на тему
Статистика раздачи [Обновить пиров]
Размер:  6,98 GB   |    Зарегистрирован:  1 месяц 6 дней   |    .torrent скачан:  2 раза
Раздают:  507  [  0 KB/s  ]   Качают:  162  [  0 KB/s  ]   Подробная статистика пиров
 
   
 
 
Автор Сообщение

4udaki ®

Оффлайн

Медали


Пол: Мужской

Стаж: 7 лет 6 месяцев

Наличие запрета:

Сообщений: 19767

Откуда: korsars.pro

Отдача: 2 Mb/s

Загрузка: 20 Mb/s

Нажми


Скачать Adguard бесплатно

Создавать темы 19-Апр-2022 15:38

[Цитировать]

Информация о фильме
Название: Волк как я
Оригинальное название: Wolf Like Me
Год выхода: 2022
Жанр: фэнтези, мелодрама, комедия, триллер
Режиссер: Эйб Форсайт
В ролях: Айла Фишер, Джош Гэд, Ариэль Джой Донохью, Эмма Ланг, Энтони Тофа, Пол Пантано, Винсент Стоун, Алан Дьюкс, Оно Латукефу, Нэш Эдгертон
О фильме:
Восемь лет назад жена Гэри умерла от рака, когда их дочери по имени Эмма было всего 4 года. Теперь Эмме 11, она посещает психолога и принимает лекарства, а отношения с отцом не складываются. Однажды Гэри и Эмма попадают в автомобильную аварию, когда в их машину врезается очаровательная девушка Мэри, у которой есть свои тёмные тайны, и о них лучше не знать никому.

Страна: Австралия
Продолжительность: ~00:29:00 серия
Перевод: Профессиональный (многоголосый закадровый) LostFilm
Файл
Кодек: MKV
Качество: WEB-DL 1080p
Видео: AVC, 1920x1080 (16:9), 5 654 kbps (0.114 b/px), 23.976 fps
Аудио #1: AC3, 384 kbps (CBR), 48.0 KHz (16 bits), 2 ch, Russian - LostFilm
Аудио #2: AAC LC, 445 kbps (CBR), 48.0 KHz, 6 ch, English
Субтитры: English
РЕКЛАМЫ НЕТ

MediaInfo

Общее
Уникальный идентификатор : 127224575761790825451369322929598891100 (0x5FB68FE0076536688E42879BFEF2045C)
Полное имя : D:фильмы и сериалыWolf.Like.Me.S01.1080pWolf.Like.Me.S01E01.1080p.mkv
Формат : Matroska
Версия формата : Version 4
Размер файла : 1,31 Гбайт
Продолжительность : 28 м. 58 с.
Общий поток : 6 486 Кбит/сек
Дата кодирования : UTC 2022-04-18 11:52:15
Программа кодирования : mkvmerge v35.0.0 ('All The Love In The World') 64-bit
Библиотека кодирования : libebml v1.3.9 + libmatroska v1.5.2
Видео
Идентификатор : 1
Формат : AVC
Формат/Информация : Advanced Video Codec
Профиль формата : High@L4
Настройки формата : CABAC / 4 Ref Frames
Параметр CABAC формата : Да
Параметр RefFrames формата : 4 кадра
Идентификатор кодека : V_MPEG4/ISO/AVC
Продолжительность : 28 м. 58 с.
Битрейт : 5 654 Кбит/сек
Ширина : 1 920 пикселей
Высота : 1 080 пикселей
Соотношение сторон : 16:9
Режим частоты кадров : Постоянный
Частота кадров : 23,976 (24000/1001) кадра/сек
Цветовое пространство : YUV
Субдискретизация насыщенности : 4:2:0
Битовая глубина : 8 бит
Тип развёртки : Прогрессивная
Бит/(Пиксели*Кадры) : 0.114
Размер потока : 1,14 Гбайт (87%)
Default : Да
Forced : Нет
Цветовой диапазон : Limited
Основные цвета : BT.709
Характеристики трансфера : BT.709
Коэффициенты матрицы : BT.709
Аудио #1
Идентификатор : 2
Формат : AC-3
Формат/Информация : Audio Coding 3
Коммерческое название : Dolby Digital
Идентификатор кодека : A_AC3
Продолжительность : 28 м. 58 с.
Вид битрейта : Постоянный
Битрейт : 384 Кбит/сек
Каналы : 2 канала
Channel layout : L R
Частота : 48,0 КГц
Частота кадров : 31,250 кадров/сек (1536 SPF)
Метод сжатия : С потерями
Задержка видео : 5 мс.
Размер потока : 79,6 Мбайт (6%)
Язык : Russian
Service kind : Complete Main
Default : Да
Forced : Нет
Аудио #2
Идентификатор : 3
Формат : AAC LC
Формат/Информация : Advanced Audio Codec Low Complexity
Идентификатор кодека : A_AAC-2
Продолжительность : 28 м. 58 с.
Битрейт : 445 Кбит/сек
Каналы : 6 каналов
Channel layout : C L R Ls Rs LFE
Частота : 48,0 КГц
Частота кадров : 46,875 кадров/сек (1024 SPF)
Метод сжатия : С потерями
Размер потока : 92,3 Мбайт (7%)
Язык : English
Default : Нет
Forced : Нет
Текст #1
Идентификатор : 4
Формат : UTF-8
Идентификатор кодека : S_TEXT/UTF8
Идентификатор кодека/Информация : UTF-8 Plain Text
Продолжительность : 26 м. 33 с.
Битрейт : 75 бит/сек
Count of elements : 478
Размер потока : 14,6 Кбайт (0%)
Язык : English
Default : Нет
Forced : Нет
Текст #2
Идентификатор : 5
Формат : UTF-8
Идентификатор кодека : S_TEXT/UTF8
Идентификатор кодека/Информация : UTF-8 Plain Text
Продолжительность : 26 м. 35 с.
Битрейт : 78 бит/сек
Count of elements : 494
Размер потока : 15,3 Кбайт (0%)
Заголовок : SDH
Язык : English
Default : Нет
Forced : Нет
-
[korsars.pro].t55696.torrent 
Торрент: Зарегистрирован [ 2022-04-19 15:38 ] · 8E79CA4620F1391188DD91B4A4A239AD0FD51C75

Скачать .torrent

Размер .torrent файла 19 KB

Статус: проверено
.torrent скачан: 2 раз
Размер: 6,98 GB
Правила
Похожие темы

Вы не зарегистрированы на нашем сайте. Вам доступна для скачивания только часть контента. Чтобы увидеть весь контент сайта, пожалуйста, зарегистрироруйтесь.

Дешевый и быстрый Сидбокс

Ключи и пин-коды

Игры, Кредитные карты, IP-телефония, Интернет провайдеры, Мобильная связь, Спутниковое ТВ

Электронные книги

Бизнес и экономика, Дом, быт, семья, досуг, Санкт-Петербург, Компьютеры и интернет, Наука и образование, Техническая литература, Юридическая литература

Цифровые товары

iTunes & App Store, Базы данных, Дизайн, Доступ к ресурсам, Kарты продления, ключи, Фотографии, Шаблоны для сайтов

Программное обеспечение

Безопасность, Игры, PC, Интернет, Мобильная связь, Программирование, Продвижение сайтов (SEO), Утилиты
У Вас отключен VIP статус, поэтому Вам показывается реклама на сайте. Вы можете поддержать наш ресурс и приобрести VIP статус, тем самым отключив показ рекламы на сайте, а ещё VIP пользователи получают возможность

смотреть аниме онлайн в HD качестве

(не распространяется на раздел Flarrow Films), а так же получить 5 инвайтов, которыми можно поделиться с друзьями или знакомыми.
Дешевый и быстрый Сидбокс

Ключи и пин-коды

Игры, Кредитные карты, IP-телефония, Интернет провайдеры, Мобильная связь, Спутниковое ТВ

Электронные книги

Бизнес и экономика, Дом, быт, семья, досуг, Санкт-Петербург, Компьютеры и интернет, Наука и образование, Техническая литература, Юридическая литература

Цифровые товары

iTunes & App Store, Базы данных, Дизайн, Доступ к ресурсам, Kарты продления, ключи, Фотографии, Шаблоны для сайтов

Программное обеспечение

Безопасность, Игры, PC, Интернет, Мобильная связь, Программирование, Продвижение сайтов (SEO), Утилиты
[Профиль] [ЛС]
Показать сообщения:    
Ответить на тему

Текущее время: 26-Май 00:21

Часовой пояс: UTC + 4



Вы не можете начинать темы
Вы не можете отвечать на сообщения
Вы не можете редактировать свои сообщения
Вы не можете удалять свои сообщения
Вы не можете голосовать в опросах
Вы не можете прикреплять файлы к сообщениям
Вы можете скачивать файлы
Анализ сайта korsars.pro Яндекс.Метрика