Игра друзей / Tomodachi Game [S01x01-07 из 12] (2022) WEBRip 1080p by VLDeshka | L | DreamCast, Anilibria

Ответить на тему
Статистика раздачи [Обновить пиров]
Размер:  3,78 GB   |    Зарегистрирован:  6 дней   |    .torrent скачан:  9 раз
Раздают:  16  [  0 KB/s  ]   Качают:  10  [  0 KB/s  ]   Подробная статистика пиров
 
   
 
 
Автор Сообщение

VLDeshka ®

Оффлайн

Медали


Пол: Не указан

Стаж: 1 год 7 месяцев

Наличие запрета:

Сообщений: 176

Отдача: 2 Mb/s

Загрузка: 20 Mb/s

Нажми


Скачать Adguard бесплатно

Создавать темы 07-Апр-2022 17:16

[Цитировать]

Игра друзей / Tomodachi Game-Год выпуска: 2022
Страна: Япония
Жанр: Cёнэн, триллер, драма
Продолжительность: ~ 00:23:00 (серия)
Перевод: Любительский многоголосый
Возрастное ограничение: PG-17-В ролях: Томохиро Оно, Юмэ Миямото, Дайки Хамано, Сатоми Амано, Тиаки Кобаяси
Режиссёр: Хирофуми Огура-Рейтинг:
-Описание: В дружном сплочённом классе вдруг пропадает значительная сумма денег, которую ребята собирали для того, чтобы оплатить школьную поездку. Подозрение падает на Макото Сибэ и Сихо Савараги, которым сдавали наличность. Двое отважно берут на себя ответственность, несмотря на свою непричастность, так как истинный виновный не признался в содеянном. Самый большой урон кража наносит Юити Катагири, который всю жизнь страдает от финансовых проблем и много работал, чтобы скопить нужную сумму. Несколько дней спустя Юити и нескольких его близких друзей похищают. Некто, представившийся как Макото объявляет детям, что теперь они будут участвовать в «Игре друзей», в которой их дружба будет подвергнута проверке. Теперь Юити, который доверял друзьям и выдержал все трудности своего положения, сохранив позитивный настрой и волю к борьбе, только благодаря их поддержке, должен выяснить, кто из его так называемых друзей — настоящий, а кто — предатель.-Качество: WEBRip (1080p)
Формат: MKV (MPEG-4 AVC)
Видео: 1920x1080, ~ 2 700 kbs, 23.976 FPS. 8 bits
Аудио #1: AAC LC, ~ 192 kbs, 2 channels, 48.0 kHz | DreamCast [Berserk, Jerwis, Orru, Lelik_time, Rizz_Fisher]
Аудио #2: AAC LC, ~ 192 kbs, 2 channels, 44.1 kHz | Anilibria [Derenn, Hekomi, JazzJack, OkanaTsoy, Sharon]
Аудио #3: AAC LC, ~ 128 kbs, 2 channels, 44.1 kHz | Original
Субтитры: Русские (полные, на надписи, отключаемые)-

MediaInfo

Уникальный идентификатор : 34525335936724044291279648113157683947 (0x19F9567C2962745967C1A69B0D0B3AEB)
Полное имя : D:\tor\Tomodachi.Game.[S1].WEBRip.1080p.by.VLDeshka\Tomodachi Game - 01.mkv
Формат : Matroska
Версия формата : Version 4
Размер файла : 567 Мбайт
Продолжительность : 22 м. 50 с.
Общий поток : 3 473 Кбит/сек
Дата кодирования : UTC 2022-04-07 13:11:08
Программа кодирования : mkvmerge v64.0.0 ('Willows') 64-bit
Библиотека кодирования : libebml v1.4.2 + libmatroska v1.6.4
Attachments : Roboto-Medium.ttf / Roboto-MediumItalic.ttf / arial.ttf / arialbd.ttf / comic.ttf / comicbd.ttf / times.ttf / timesbd.ttf / trebuc.ttf / trebucbd.ttf / verdana.ttf / verdanab.ttf
Видео
Идентификатор : 1
Формат : AVC
Формат/Информация : Advanced Video Codec
Профиль формата : High@L4
Настройки формата : CABAC / 4 Ref Frames
Параметр CABAC формата : Да
Параметр RefFrames формата : 4 кадра
Идентификатор кодека : V_MPEG4/ISO/AVC
Продолжительность : 22 м. 50 с.
Битрейт : 2 929 Кбит/сек
Номинальный битрейт : 2 700 Кбит/сек
Ширина : 1 920 пикселей
Высота : 1 080 пикселей
Соотношение сторон : 16:9
Режим частоты кадров : Постоянный
Частота кадров : 23,976 (24000/1001) кадра/сек
Цветовое пространство : YUV
Субдискретизация насыщенности : 4:2:0
Битовая глубина : 8 бит
Тип развёртки : Прогрессивная
Бит/(Пиксели*Кадры) : 0.059
Размер потока : 478 Мбайт (84%)
Библиотека кодирования : x264 core 133 r2334 a3ac64b
Настройки программы : cabac=1 / ref=3 / deblock=1:0:0 / analyse=0x3:0x113 / me=hex / subme=7 / psy=1 / psy_rd=1.00:0.00 / mixed_ref=1 / me_range=16 / chroma_me=1 / trellis=1 / 8x8dct=1 / cqm=0 / deadzone=21,11 / fast_pskip=1 / chroma_qp_offset=-2 / threads=12 / lookahead_threads=2 / sliced_threads=0 / nr=0 / decimate=1 / interlaced=0 / bluray_compat=0 / constrained_intra=0 / bframes=3 / b_pyramid=2 / b_adapt=1 / b_bias=0 / direct=1 / weightb=1 / open_gop=0 / weightp=2 / keyint=250 / keyint_min=23 / scenecut=40 / intra_refresh=0 / rc_lookahead=40 / rc=abr / mbtree=1 / bitrate=2700 / ratetol=1.0 / qcomp=0.60 / qpmin=0 / qpmax=69 / qpstep=4 / ip_ratio=1.40 / aq=1:1.00
Язык : English
Default : Да
Forced : Нет
Аудио #1
Идентификатор : 2
Формат : AAC LC
Формат/Информация : Advanced Audio Codec Low Complexity
Идентификатор кодека : A_AAC-2
Продолжительность : 22 м. 50 с.
Битрейт : 192 Кбит/сек
Каналы : 2 канала
Channel layout : L R
Частота : 48,0 КГц
Частота кадров : 46,875 кадров/сек (1024 SPF)
Метод сжатия : С потерями
Размер потока : 30,9 Мбайт (5%)
Заголовок : DreamCast
Язык : Russian
Default : Да
Forced : Нет
Аудио #2
Идентификатор : 3
Формат : AAC LC
Формат/Информация : Advanced Audio Codec Low Complexity
Идентификатор кодека : A_AAC-2
Продолжительность : 22 м. 50 с.
Битрейт : 192 Кбит/сек
Каналы : 2 канала
Channel layout : L R
Частота : 44,1 КГц
Частота кадров : 43,066 кадра/сек (1024 SPF)
Метод сжатия : С потерями
Размер потока : 31,0 Мбайт (5%)
Заголовок : AniLibria.TV
Язык : Russian
Default : Нет
Forced : Да
Аудио #3
Идентификатор : 4
Формат : AAC LC
Формат/Информация : Advanced Audio Codec Low Complexity
Идентификатор кодека : A_AAC-2
Продолжительность : 22 м. 50 с.
Битрейт : 128 Кбит/сек
Каналы : 2 канала
Channel layout : L R
Частота : 44,1 КГц
Частота кадров : 43,066 кадра/сек (1024 SPF)
Метод сжатия : С потерями
Размер потока : 20,9 Мбайт (4%)
Язык : Japanese
Default : Нет
Forced : Нет
Текст #1
Идентификатор : 5
Формат : ASS
Идентификатор кодека : S_TEXT/ASS
Идентификатор кодека/Информация : Advanced Sub Station Alpha
Продолжительность : 20 м. 56 с.
Битрейт : 47 бит/сек
Count of elements : 49
Метод сжатия : Без потерь
Размер потока : 7,35 Кбайт (0%)
Заголовок : Надписи
Язык : Russian
Default : Да
Forced : Да
Текст #2
Идентификатор : 6
Формат : ASS
Идентификатор кодека : S_TEXT/ASS
Идентификатор кодека/Информация : Advanced Sub Station Alpha
Продолжительность : 20 м. 56 с.
Битрейт : 241 бит/сек
Count of elements : 386
Метод сжатия : Без потерь
Размер потока : 37,1 Кбайт (0%)
Заголовок : Субтитры
Язык : Russian
Default : Нет
Forced : Нет
[korsars.pro].t55030.torrent 
Торрент: Зарегистрирован [ 2022-05-19 21:34 ] · 331DF57989A639C5C3B815A82E37999D01B1B5C3

Скачать .torrent

Размер .torrent файла 76 KB

Статус: проверено
.torrent скачан: 9 раз
Размер: 3,78 GB
Правила
ZaLmanVsk(09-Апр-22), ssegga71(14-Апр-22), 4udaki(21-Апр-22)
Похожие темы

Вы не зарегистрированы на нашем сайте. Вам доступна для скачивания только часть контента. Чтобы увидеть весь контент сайта, пожалуйста, зарегистрироруйтесь.

Дешевый и быстрый Сидбокс

Ключи и пин-коды

Игры, Кредитные карты, IP-телефония, Интернет провайдеры, Мобильная связь, Спутниковое ТВ

Электронные книги

Бизнес и экономика, Дом, быт, семья, досуг, Санкт-Петербург, Компьютеры и интернет, Наука и образование, Техническая литература, Юридическая литература

Цифровые товары

iTunes & App Store, Базы данных, Дизайн, Доступ к ресурсам, Kарты продления, ключи, Фотографии, Шаблоны для сайтов

Программное обеспечение

Безопасность, Игры, PC, Интернет, Мобильная связь, Программирование, Продвижение сайтов (SEO), Утилиты
У Вас отключен VIP статус, поэтому Вам показывается реклама на сайте. Вы можете поддержать наш ресурс и приобрести VIP статус, тем самым отключив показ рекламы на сайте, а ещё VIP пользователи получают возможность

смотреть аниме онлайн в HD качестве

(не распространяется на раздел Flarrow Films), а так же получить 5 инвайтов, которыми можно поделиться с друзьями или знакомыми.
Дешевый и быстрый Сидбокс

Ключи и пин-коды

Игры, Кредитные карты, IP-телефония, Интернет провайдеры, Мобильная связь, Спутниковое ТВ

Электронные книги

Бизнес и экономика, Дом, быт, семья, досуг, Санкт-Петербург, Компьютеры и интернет, Наука и образование, Техническая литература, Юридическая литература

Цифровые товары

iTunes & App Store, Базы данных, Дизайн, Доступ к ресурсам, Kарты продления, ключи, Фотографии, Шаблоны для сайтов

Программное обеспечение

Безопасность, Игры, PC, Интернет, Мобильная связь, Программирование, Продвижение сайтов (SEO), Утилиты


Последний раз редактировалось: VLDeshka (2022-05-19 21:34), всего редактировалось 8 раз(а)
[Профиль] [ЛС]

akhalder

Оффлайн

Медали


Пол: Не указан

Стаж: 1 год 4 месяца

Наличие запрета:

Сообщений: 3

Отдача: не определено

Загрузка: не определено

Нажми


Скачать Adguard бесплатно

Создавать темы 08-Апр-2022 22:30 (спустя 1 день 5 часов)

[Цитировать]

Тут одна серия, а не 12
[Профиль] [ЛС]

VLDeshka ®

Оффлайн

Медали


Пол: Не указан

Стаж: 1 год 7 месяцев

Наличие запрета:

Сообщений: 176

Отдача: 2 Mb/s

Загрузка: 20 Mb/s

Нажми


Скачать Adguard бесплатно

Создавать темы 08-Апр-2022 23:15 (спустя 45 минут)

[Цитировать]

64247Тут одна серия, а не 12
Подзабыл чутка, как правильно делать
[Профиль] [ЛС]

VLDeshka ®

Оффлайн

Медали


Пол: Не указан

Стаж: 1 год 7 месяцев

Наличие запрета:

Сообщений: 176

Отдача: 2 Mb/s

Загрузка: 20 Mb/s

Нажми


Скачать Adguard бесплатно

Создавать темы 14-Апр-2022 17:19 (спустя 5 дней)

[Цитировать]

Добавлена 2-я серия
[Профиль] [ЛС]

VLDeshka ®

Оффлайн

Медали


Пол: Не указан

Стаж: 1 год 7 месяцев

Наличие запрета:

Сообщений: 176

Отдача: 2 Mb/s

Загрузка: 20 Mb/s

Нажми


Скачать Adguard бесплатно

Создавать темы 21-Апр-2022 14:59 (спустя 6 дней)

[Цитировать]

Добавлена 3-я серия
[Профиль] [ЛС]

VLDeshka ®

Оффлайн

Медали


Пол: Не указан

Стаж: 1 год 7 месяцев

Наличие запрета:

Сообщений: 176

Отдача: 2 Mb/s

Загрузка: 20 Mb/s

Нажми


Скачать Adguard бесплатно

Создавать темы 29-Апр-2022 15:50 (спустя 8 дней)

[Цитировать]

Добавлена 4-я серия
[Профиль] [ЛС]

VLDeshka ®

Оффлайн

Медали


Пол: Не указан

Стаж: 1 год 7 месяцев

Наличие запрета:

Сообщений: 176

Отдача: 2 Mb/s

Загрузка: 20 Mb/s

Нажми


Скачать Adguard бесплатно

Создавать темы 05-Май-2022 16:35 (спустя 6 дней)

[Цитировать]

Добавлена 5-я серия
[Профиль] [ЛС]

VLDeshka ®

Оффлайн

Медали


Пол: Не указан

Стаж: 1 год 7 месяцев

Наличие запрета:

Сообщений: 176

Отдача: 2 Mb/s

Загрузка: 20 Mb/s

Нажми


Скачать Adguard бесплатно

Создавать темы 13-Май-2022 16:21 (спустя 7 дней)

[Цитировать]

Добавлена 6-я серия
[Профиль] [ЛС]

VLDeshka ®

Оффлайн

Медали


Пол: Не указан

Стаж: 1 год 7 месяцев

Наличие запрета:

Сообщений: 176

Отдача: 2 Mb/s

Загрузка: 20 Mb/s

Нажми


Скачать Adguard бесплатно

Создавать темы 19-Май-2022 21:34 (спустя 6 дней)

[Цитировать]

Добавлена 7-я серия
[Профиль] [ЛС]
Показать сообщения:    
Ответить на тему

Текущее время: 26-Май 00:41

Часовой пояс: UTC + 4



Вы не можете начинать темы
Вы не можете отвечать на сообщения
Вы не можете редактировать свои сообщения
Вы не можете удалять свои сообщения
Вы не можете голосовать в опросах
Вы не можете прикреплять файлы к сообщениям
Вы можете скачивать файлы
Анализ сайта korsars.pro Яндекс.Метрика