Лунный Рыцарь / Moon Knight [S01] (2022) WEB-DLRip 1080p | D | Локализованная версия | Flarrow Films

Ответить на тему
Статистика раздачи [Обновить пиров]
Размер:  19,63 GB   |    Зарегистрирован:  12 дней   |    .torrent скачан:  35 раз
Раздают:  193  [  12 MB/s  ]   Качают:  162  [  2 MB/s  ]   Подробная статистика пиров
 
   
 
 
Автор Сообщение

flarrowfilms ®

Оффлайн

Медали
VIPДруг трекераСупер Мега Контер Квейк


Пол: Не указан

Стаж: 2 года 2 месяца

Наличие запрета:

Сообщений: 115

Отдача: 5 Mb/s

Загрузка: 5 Mb/s

Нажми


Скачать Adguard бесплатно

Создавать темы 04-Апр-2022 01:17

[Цитировать]

Информация о фильме
Название: Лунный рыцарь
Оригинальное название: Moon Knight
Год выхода: 2022
Жанр: ужасы, фантастика, фэнтези, боевик, драма, приключения
Режиссер: Джастин Бенсон, Мохамед Диаб, Аарон Мурхед
В ролях: Оскар Айзек, Итан Хоук, Мэй Коллауэй, Ф. Мюррэй Абрахам, Гаспар Ульель, Фернанда Андраде, София Асир, Диана Бермудес, Энн Акин, Рей Лукас
О фильме:
Новый телесериал во вселенной Marvel, посвященный бывшему морскому пехотинецу США с диссоциативным расстройством личности Марку Спектору по прозвищу Лунный рыцарь, который становится проводником египетского бога Луны Хонсу.

Страна: США
Продолжительность: 00:45:32
Перевод: Дублированный (профессиональный) | Flarrow Films
Роли озвучивали: Михаил Глушковский, Михаил Данилюк, Константин Погодаев, Егор Васильев, Глеб Петров, Вероника Нефедова, Антонина Лазаревская, Ахилл Намазов, Лена Лунина, Денис Кузьмичёв, Ирина Евтягина, Андрей Маслов, Татьяна Тарасова, Алёна Соколова и Алина Лихачева.
Файл
Формат: MKV
Кодек: MPEG-4 AVC
Качество: WEB-DLRip 1080p (локализованный видеоряд)
Видео: 1920х1080, ~ 6 260 kb/s, 24.000 FPS, 8 bits
Звук: AC-3, 320 kb/s, 2 channels, 48.0 kHz
Субтитры: русские (отключаемые UTF-8)
Сэмпл: скачать-

MediaInfo

General
Unique ID : 245253155944225876358266995260957819831 (0xB8820A29B41BFB1992EFEC91187283B7)
Complete name : C:\Flarrow\Moon.Knight.S01.1080p.D.Flarrow.Films\Moon.Knight.S01E01.mkv
Format : Matroska
Format version : Version 4
File size : 2.09 GiB
Duration : 45 min 32 s
Overall bit rate mode : Variable
Overall bit rate : 6 582 kb/s
Encoded date : UTC 2022-04-03 20:48:37
Writing application : mkvmerge v32.0.0 ('Astral Progressions') 64-bit
Writing library : libebml v1.3.7 + libmatroska v1.5.0
Video
ID : 1
Format : AVC
Format/Info : Advanced Video Codec
Format profile : High@L4
Format settings : CABAC / 4 Ref Frames
Format settings, CABAC : Yes
Format settings, Reference : 4 frames
Codec ID : V_MPEG4/ISO/AVC
Duration : 45 min 32 s
Bit rate mode : Variable
Bit rate : 6 260 kb/s
Maximum bit rate : 12.7 Mb/s
Width : 1 920 pixels
Height : 1 080 pixels
Display aspect ratio : 16:9
Frame rate mode : Constant
Frame rate : 24.000 FPS
Color space : YUV
Chroma subsampling : 4:2:0
Bit depth : 8 bits
Scan type : Progressive
Bits/(Pixel*Frame) : 0.126
Stream size : 1.99 GiB (95%)
Default : Yes
Forced : No
Color range : Limited
Color primaries : BT.709
Transfer characteristics : BT.709
Matrix coefficients : BT.709
Audio
ID : 2
Format : AC-3
Format/Info : Audio Coding 3
Commercial name : Dolby Digital
Codec ID : A_AC3
Duration : 45 min 32 s
Bit rate mode : Constant
Bit rate : 320 kb/s
Channel(s) : 2 channels
Channel layout : L R
Sampling rate : 48.0 kHz
Frame rate : 31.250 FPS (1536 SPF)
Compression mode : Lossy
Stream size : 104 MiB (5%)
Service kind : Complete Main
Default : Yes
Forced : No
Text
ID : 3
Format : UTF-8
Codec ID : S_TEXT/UTF8
Codec ID/Info : UTF-8 Plain Text
Duration : 39 min 25 s
Bit rate : 87 b/s
Count of elements : 453
Stream size : 25.3 KiB (0%)
Default : Yes
Forced : No
--Релиз от: Flarrow Films
Примечание: Релиз без рекламы-13.05.2022 обновлено. Добавлена 6 серия.-
[korsars.pro].t54829.torrent 
Торрент: Зарегистрирован [ 2022-05-13 00:38 ] · 12F4ACFBCD8563A5C1BE2A0FC97429F1076103D2

Скачать .torrent

Размер .torrent файла 50 KB

Статус: проверено
.torrent скачан: 35 раз
Размер: 19,63 GB
Правила
Zausenets(05-Апр-22), 4udaki(06-Апр-22), MARVEL(13-Апр-22), pfillipock(18-Апр-22), AlexKsandeR(18-Апр-22), Тимур(13-Май-22), Jordan7(13-Май-22), General_Chopper(21-Май-22)
Похожие темы

Вы не зарегистрированы на нашем сайте. Вам доступна для скачивания только часть контента. Чтобы увидеть весь контент сайта, пожалуйста, зарегистрироруйтесь.

Дешевый и быстрый Сидбокс

Ключи и пин-коды

Игры, Кредитные карты, IP-телефония, Интернет провайдеры, Мобильная связь, Спутниковое ТВ

Электронные книги

Бизнес и экономика, Дом, быт, семья, досуг, Санкт-Петербург, Компьютеры и интернет, Наука и образование, Техническая литература, Юридическая литература

Цифровые товары

iTunes & App Store, Базы данных, Дизайн, Доступ к ресурсам, Kарты продления, ключи, Фотографии, Шаблоны для сайтов

Программное обеспечение

Безопасность, Игры, PC, Интернет, Мобильная связь, Программирование, Продвижение сайтов (SEO), Утилиты
У Вас отключен VIP статус, поэтому Вам показывается реклама на сайте. Вы можете поддержать наш ресурс и приобрести VIP статус, тем самым отключив показ рекламы на сайте, а ещё VIP пользователи получают возможность

смотреть аниме онлайн в HD качестве

(не распространяется на раздел Flarrow Films), а так же получить 5 инвайтов, которыми можно поделиться с друзьями или знакомыми.
Дешевый и быстрый Сидбокс

Ключи и пин-коды

Игры, Кредитные карты, IP-телефония, Интернет провайдеры, Мобильная связь, Спутниковое ТВ

Электронные книги

Бизнес и экономика, Дом, быт, семья, досуг, Санкт-Петербург, Компьютеры и интернет, Наука и образование, Техническая литература, Юридическая литература

Цифровые товары

iTunes & App Store, Базы данных, Дизайн, Доступ к ресурсам, Kарты продления, ключи, Фотографии, Шаблоны для сайтов

Программное обеспечение

Безопасность, Игры, PC, Интернет, Мобильная связь, Программирование, Продвижение сайтов (SEO), Утилиты
[Профиль] [ЛС]
Показать сообщения:    
Ответить на тему

Текущее время: 25-Май 22:25

Часовой пояс: UTC + 4



Вы не можете начинать темы
Вы не можете отвечать на сообщения
Вы не можете редактировать свои сообщения
Вы не можете удалять свои сообщения
Вы не можете голосовать в опросах
Вы не можете прикреплять файлы к сообщениям
Вы можете скачивать файлы
Анализ сайта korsars.pro Яндекс.Метрика