Пацаны: Осатанелые / The Boys Presents: Diabolical [S01] (2020) WEB-DLRip 1080p | Flarrow Films

Ответить на тему
Статистика раздачи [Обновить пиров]
Размер:  2,75 GB   |    Зарегистрирован:  2 месяца 10 дней   |    .torrent скачан:  42 раза
Раздают:  303  [  41 KB/s  ]   Качают:  97  [  0 KB/s  ]   Подробная статистика пиров
 
   
 
 
Автор Сообщение

flarrowfilms ®

Оффлайн

Медали
VIPДруг трекераСупер Мега Контер Квейк


Пол: Не указан

Стаж: 2 года 2 месяца

Наличие запрета:

Сообщений: 115

Отдача: 5 Mb/s

Загрузка: 5 Mb/s

Нажми


Скачать Adguard бесплатно

Создавать темы 07-Мар-2022 15:44

[Цитировать]

Информация о фильме
Название: Пацаны: Осатанелые
Оригинальное название: Diabolical
Год выхода: 2022
Жанр: мультфильм, фантастика, боевик, драма, комедия
Режиссер: Джанкарло Вольпе, Стив Ан, Мэтью Борденэйв
В ролях: Грэй Гриффин, Бен Шварц, Энтони Старр, Крис Диамантополос, Анджела Мари Волп, Аквафина, Сет Роген, Элизабет Шу, Джейсон Айзекс, Кумэйл Нанджиани
О фильме:
История о супергероях спин-офф сериала «Пацаны», которые действительно непохожи на стандартных персонажей из подобных сериалов. Выглядят они крайне интересно и необычно, при всем этом, можно с полной уверенностью сказать, что каждый из них уникален. Очень интересный, яркий и красочный сериал, который точно заслуживает вашего внимания. Это будет крайне интересно и необычно.

Страна: США
Продолжительность: 00:13:47
Перевод: Профессиональный (многоголосый, закадровый) | Flarrow Films
Роли озвучивали: Алексей Ядренников, Ахилл Намазов, Денис Кузьмичёв, Семён Евсиков, Рина Чернышова, Анастасия Скачкова, Алина Лихачева и Виталий Кашеваров.
Файл
Формат: MKV
Кодек: MPEG-4 AVC
Качество: WEB-DLRip 1080p
Видео: 1920х1080, ~ 5 716 kb/s, 23.976, 8 bits
Звук: AC-3, 320 kb/s, 2 channels, 48.0 kHz
Субтитры: русские (хардсаб на надписи), русские (в составе контейнера, отключаемые)-

MediaInfo

General
Unique ID : 140753466657307424942113750756624867469 (0x69E421B1ECA9B661E685EF5A8786A08D)
Complete name : C:\Flarrow\The.Boys.Presents.Diabolical.S01.1080p.Flarrow.Films\The.Boys.Presents.Diabolical.S01E01.mkv
Format : Matroska
Format version : Version 4
File size : 595 MiB
Duration : 13 min 47 s
Overall bit rate : 6 031 kb/s
Encoded date : UTC 2022-03-07 10:14:51
Writing application : mkvmerge v32.0.0 ('Astral Progressions') 64-bit
Writing library : libebml v1.3.7 + libmatroska v1.5.0
Video
ID : 1
Format : AVC
Format/Info : Advanced Video Codec
Format profile : High@L4.1
Format settings : CABAC / 4 Ref Frames
Format settings, CABAC : Yes
Format settings, Reference : 4 frames
Codec ID : V_MPEG4/ISO/AVC
Duration : 13 min 46 s
Bit rate : 5 716 kb/s
Width : 1 920 pixels
Height : 1 080 pixels
Display aspect ratio : 16:9
Frame rate mode : Constant
Frame rate : 23.976 FPS
Color space : YUV
Chroma subsampling : 4:2:0
Bit depth : 8 bits
Scan type : Progressive
Bits/(Pixel*Frame) : 0.115
Stream size : 563 MiB (95%)
Writing library : x264 core 146 r2538 121396c
Encoding settings : cabac=1 / ref=4 / deblock=1:1:1 / analyse=0x3:0x113 / me=hex / subme=6 / psy=1 / psy_rd=0.40:0.00 / mixed_ref=1 / me_range=16 / chroma_me=1 / trellis=1 / 8x8dct=1 / cqm=0 / deadzone=21,11 / fast_pskip=1 / chroma_qp_offset=-2 / threads=6 / lookahead_threads=1 / sliced_threads=0 / nr=0 / decimate=1 / interlaced=0 / bluray_compat=0 / constrained_intra=0 / bframes=5 / b_pyramid=2 / b_adapt=1 / b_bias=0 / direct=1 / weightb=1 / open_gop=0 / weightp=1 / keyint=250 / keyint_min=23 / scenecut=40 / intra_refresh=0 / rc_lookahead=30 / rc=crf / mbtree=1 / crf=19.0 / qcomp=0.60 / qpmin=0 / qpmax=69 / qpstep=4 / ip_ratio=1.40 / aq=1:0.60
Language : English
Default : Yes
Forced : No
Audio
ID : 2
Format : AC-3
Format/Info : Audio Coding 3
Commercial name : Dolby Digital
Codec ID : A_AC3
Duration : 13 min 47 s
Bit rate mode : Constant
Bit rate : 320 kb/s
Channel(s) : 2 channels
Channel layout : L R
Sampling rate : 48.0 kHz
Frame rate : 31.250 FPS (1536 SPF)
Compression mode : Lossy
Stream size : 31.6 MiB (5%)
Service kind : Complete Main
Default : Yes
Forced : No
Text
ID : 3
Format : UTF-8
Codec ID : S_TEXT/UTF8
Codec ID/Info : UTF-8 Plain Text
Duration : 12 min 21 s
Bit rate : 16 b/s
Count of elements : 34
Stream size : 1.49 KiB (0%)
Default : Yes
Forced : No
--Релиз от: Flarrow Films
Примечание: Релиз без рекламы.
Примечание: Присутствует ненормативная лексика (18+).- -
[korsars.pro].t53573.torrent 
Торрент: Зарегистрирован [ 2022-03-15 17:19 ] · 44955AF9A07E567F730AA3F7886BCB9B98797A52

Скачать .torrent

Размер .torrent файла 15 KB

Статус: проверено
.torrent скачан: 42 раз
Размер: 2,75 GB
Правила
Тимур(18-Апр-22), General_Chopper(18-Апр-22), 4udaki(19-Апр-22)
Похожие темы

Вы не зарегистрированы на нашем сайте. Вам доступна для скачивания только часть контента. Чтобы увидеть весь контент сайта, пожалуйста, зарегистрироруйтесь.

Дешевый и быстрый Сидбокс

Ключи и пин-коды

Игры, Кредитные карты, IP-телефония, Интернет провайдеры, Мобильная связь, Спутниковое ТВ

Электронные книги

Бизнес и экономика, Дом, быт, семья, досуг, Санкт-Петербург, Компьютеры и интернет, Наука и образование, Техническая литература, Юридическая литература

Цифровые товары

iTunes & App Store, Базы данных, Дизайн, Доступ к ресурсам, Kарты продления, ключи, Фотографии, Шаблоны для сайтов

Программное обеспечение

Безопасность, Игры, PC, Интернет, Мобильная связь, Программирование, Продвижение сайтов (SEO), Утилиты
У Вас отключен VIP статус, поэтому Вам показывается реклама на сайте. Вы можете поддержать наш ресурс и приобрести VIP статус, тем самым отключив показ рекламы на сайте, а ещё VIP пользователи получают возможность

смотреть аниме онлайн в HD качестве

(не распространяется на раздел Flarrow Films), а так же получить 5 инвайтов, которыми можно поделиться с друзьями или знакомыми.
Дешевый и быстрый Сидбокс

Ключи и пин-коды

Игры, Кредитные карты, IP-телефония, Интернет провайдеры, Мобильная связь, Спутниковое ТВ

Электронные книги

Бизнес и экономика, Дом, быт, семья, досуг, Санкт-Петербург, Компьютеры и интернет, Наука и образование, Техническая литература, Юридическая литература

Цифровые товары

iTunes & App Store, Базы данных, Дизайн, Доступ к ресурсам, Kарты продления, ключи, Фотографии, Шаблоны для сайтов

Программное обеспечение

Безопасность, Игры, PC, Интернет, Мобильная связь, Программирование, Продвижение сайтов (SEO), Утилиты


Последний раз редактировалось: flarrowfilms (2022-04-19 10:09), всего редактировалось 1 раз
[Профиль] [ЛС]

General_Chopper

Оффлайн

Медали


Пол: Не указан

Стаж: 1 месяц 7 дней

Наличие запрета:

Сообщений: 2

Отдача: не определено

Загрузка: не определено

Нажми


Скачать Adguard бесплатно

Создавать темы 18-Апр-2022 22:58 (спустя 1 месяц 11 дней)

[Цитировать]

Тут с ненормативной лексикой?)
[Профиль] [ЛС]

flarrowfilms ®

Оффлайн

Медали
VIPДруг трекераСупер Мега Контер Квейк


Пол: Не указан

Стаж: 2 года 2 месяца

Наличие запрета:

Сообщений: 115

Отдача: 5 Mb/s

Загрузка: 5 Mb/s

Нажми


Скачать Adguard бесплатно

Создавать темы 19-Апр-2022 10:10 (спустя 11 часов)

[Цитировать]

64835Тут с ненормативной лексикой?)
Примечание: Присутствует ненормативная лексика (18+).
[Профиль] [ЛС]
Показать сообщения:    
Ответить на тему

Текущее время: 26-Май 00:03

Часовой пояс: UTC + 4



Вы не можете начинать темы
Вы не можете отвечать на сообщения
Вы не можете редактировать свои сообщения
Вы не можете удалять свои сообщения
Вы не можете голосовать в опросах
Вы не можете прикреплять файлы к сообщениям
Вы можете скачивать файлы
Анализ сайта korsars.pro Яндекс.Метрика