Смертельный парад / Парад смерти /Death Parade [S01] (2021) WEB-DL 1080p от Fortuna.TV | P

Ответить на тему
Статистика раздачи [Обновить пиров]
Размер:  11,93 GB   |    Зарегистрирован:  15 дней   |    .torrent скачан:  11 раз
Раздают:  9  [  0 KB/s  ]   Качают:  4  [  0 KB/s  ]   Подробная статистика пиров
 
   
 
 
Автор Сообщение

loe3df ®

Оффлайн

Медали
VIPАктивный раздающий 1Активный раздающий 2Активный релизер Аниме (100)
Активный релизер Аниме (50)Орденосец 1 степени


Пол: Не указан

Стаж: 2 года

Наличие запрета:

Сообщений: 502

Откуда: Die Welt von Hentai

Отдача: не определено

Загрузка: не определено

Нажми


Скачать Adguard бесплатно

Создавать темы 07-Янв-2022 14:09

[Цитировать]

Смертельный парад / Парад смерти / Death Parade- Год выпуска: 2021
Страна: Япония
Жанр: Приключения
Продолжительность: ~ 00:24:00
Перевод: Профессиональный многоголосый (закадровый)
Режиссёр: Юдзуру Татикава
Возрастное ограничение: 18+-Рейтинг:
-Описание:
Все там будем – это однозначно, но большинство религий учит, что достойная жизнь принесет некие бонусы, недостойная приведет к долгим и неприятным процедурам, а кто жил серединка на половинку, тоже получит по заслугам. Но где и как такое решается? Тут мнения жрецов и пророков разошлись: кто рисует апостола Петра, кто – узенький мостик над огненной пропастью… А на деле все проще, и вход в чистилище можно найти в обычном питейном заведении, куда заглядывают самые разные личности! Конечно, бар «Пятнадцать» - лишь один из постов царства мертвых, специализирующийся на парных случаях. То есть, если два человека умерли примерно в одно время, их доставляют в бар и предлагают сыграть в интересную игру, ставки которой становятся известны ближе к финалу. Тут и начинается самое интересное, обнажающее истинную человеческую суть. А дальше бесстрастный бармен принимает решение, которое обжалованию не подлежит… Ну, не знаю, как вы, а я по барам больше не хожу!-Качество: WEB-DL 1080p
Формат: MKV (MPEG-4 AVC)
Видео: 1920x1080, ~ 6 000 kb/s, 23.976 FPS. 8 bits
Аудио RUS: AAC LC, ~ 192 kb/s, 2 channels, 48.0 kHz
Субтитры: Нет-

Скриншоты

MediaInfo

General
Unique ID : 187774818414571655262778556647274498025 (0x8D441D53B736EC3909B5B6390508C7E9)
Complete name : [FortunaTV] Death Parade - 01 (WEB-DL 1920x1080 x264 AAC Rus).mkv
Format : Matroska
Format version : Version 4
File size : 1 020 MiB
Duration : 23 min 5 s
Overall bit rate : 6 175 kb/s
Encoded date : UTC 2022-01-05 22:23:33
Writing application : mkvmerge v63.0.0 ('Everything') 64-bit
Writing library : libebml v1.4.2 + libmatroska v1.6.4
Video
ID : 1
Format : AVC
Format/Info : Advanced Video Codec
Format profile : High@L4
Format settings : CABAC / 4 Ref Frames
Format settings, CABAC : Yes
Format settings, Reference frames : 4 frames
Codec ID : V_MPEG4/ISO/AVC
Duration : 23 min 5 s
Bit rate : 6 000 kb/s
Width : 1 920 pixels
Height : 1 080 pixels
Display aspect ratio : 16:9
Frame rate mode : Constant
Frame rate : 23.976 (24000/1001) FPS
Color space : YUV
Chroma subsampling : 4:2:0
Bit depth : 8 bits
Scan type : Progressive
Bits/(Pixel*Frame) : 0.121
Stream size : 987 MiB (97%)
Writing library : x264 core 157
Encoding settings : cabac=1 / ref=4 / deblock=1:0:0 / analyse=0x3:0x133 / me=umh / subme=10 / psy=1 / psy_rd=1.00:0.00 / mixed_ref=1 / me_range=24 / chroma_me=1 / trellis=2 / 8x8dct=1 / cqm=0 / deadzone=21,11 / fast_pskip=1 / chroma_qp_offset=-2 / threads=34 / lookahead_threads=5 / sliced_threads=0 / nr=0 / decimate=1 / interlaced=0 / bluray_compat=0 / constrained_intra=0 / bframes=8 / b_pyramid=2 / b_adapt=2 / b_bias=0 / direct=3 / weightb=1 / open_gop=0 / weightp=2 / keyint=192 / keyint_min=96 / scenecut=40 / intra_refresh=0 / rc_lookahead=60 / rc=2pass / mbtree=1 / bitrate=6000 / ratetol=1.0 / qcomp=0.60 / qpmin=0 / qpmax=69 / qpstep=4 / cplxblur=20.0 / qblur=0.5 / vbv_maxrate=6600 / vbv_bufsize=9000 / nal_hrd=none / filler=0 / ip_ratio=1.40 / aq=1:1.00
Default : Yes
Forced : No
Audio
ID : 2
Format : AAC LC
Format/Info : Advanced Audio Codec Low Complexity
Codec ID : A_AAC-2
Duration : 23 min 5 s
Bit rate : 192 kb/s
Channel(s) : 2 channels
Channel layout : L R
Sampling rate : 48.0 kHz
Frame rate : 46.875 FPS (1024 SPF)
Compression mode : Lossy
Stream size : 31.8 MiB (3%)
Default : Yes
Forced : No
Релиз от: Fortuna.TV
[korsars.pro].t50240.torrent 
Торрент: Зарегистрирован [ 2022-01-07 14:22 ] · 9448D6CCCC49BE94ABA913889799CDB8DAAE4C64

Скачать .torrent

Размер .torrent файла 32 KB

Статус: * не проверено
.torrent скачан: 11 раз
Размер: 11,93 GB
Правила
4udaki(10-Янв-22)
Похожие темы

Вы не зарегистрированы на нашем сайте. Вам доступна для скачивания только часть контента. Чтобы увидеть весь контент сайта, пожалуйста, зарегистрироруйтесь.

Дешевый и быстрый Сидбокс

Ключи и пин-коды

Игры, Кредитные карты, IP-телефония, Интернет провайдеры, Мобильная связь, Спутниковое ТВ

Электронные книги

Бизнес и экономика, Дом, быт, семья, досуг, Санкт-Петербург, Компьютеры и интернет, Наука и образование, Техническая литература, Юридическая литература

Цифровые товары

iTunes & App Store, Базы данных, Дизайн, Доступ к ресурсам, Kарты продления, ключи, Фотографии, Шаблоны для сайтов

Программное обеспечение

Безопасность, Игры, PC, Интернет, Мобильная связь, Программирование, Продвижение сайтов (SEO), Утилиты
У Вас отключен VIP статус, поэтому Вам показывается реклама на сайте. Вы можете поддержать наш ресурс и приобрести VIP статус, тем самым отключив показ рекламы на сайте, а ещё VIP пользователи получают возможность

смотреть аниме онлайн в HD качестве

(не распространяется на раздел Flarrow Films), а так же получить 5 инвайтов, которыми можно поделиться с друзьями или знакомыми.
Дешевый и быстрый Сидбокс

Ключи и пин-коды

Игры, Кредитные карты, IP-телефония, Интернет провайдеры, Мобильная связь, Спутниковое ТВ

Электронные книги

Бизнес и экономика, Дом, быт, семья, досуг, Санкт-Петербург, Компьютеры и интернет, Наука и образование, Техническая литература, Юридическая литература

Цифровые товары

iTunes & App Store, Базы данных, Дизайн, Доступ к ресурсам, Kарты продления, ключи, Фотографии, Шаблоны для сайтов

Программное обеспечение

Безопасность, Игры, PC, Интернет, Мобильная связь, Программирование, Продвижение сайтов (SEO), Утилиты
[Профиль] [ЛС]

Angel

Оффлайн

Медали


Пол: Не указан

Стаж: 1 год 9 месяцев

Наличие запрета:

Сообщений: 4

Отдача: не определено

Загрузка: не определено

Нажми


Скачать Adguard бесплатно

Создавать темы 09-Янв-2022 18:10 (спустя 2 дня 4 часа)

[Цитировать]

год выхода 2015
[Профиль] [ЛС]

4udaki

Оффлайн

Медали


Пол: Мужской

Стаж: 7 лет 2 месяца

Наличие запрета:

Сообщений: 13820

Откуда: korsars.pro

Отдача: 2 Mb/s

Загрузка: 20 Mb/s

Нажми


Скачать Adguard бесплатно

Создавать темы 10-Янв-2022 12:51 (спустя 18 часов)

[Цитировать]

59276год выхода 2015
Спасибо. Раздача пока не проверена, а автор до конца декабря будет отсутствовать.
[Профиль] [ЛС]
Показать сообщения:    
Ответить на тему

Текущее время: 22-Янв 22:37

Часовой пояс: UTC + 4



Вы не можете начинать темы
Вы не можете отвечать на сообщения
Вы не можете редактировать свои сообщения
Вы не можете удалять свои сообщения
Вы не можете голосовать в опросах
Вы не можете прикреплять файлы к сообщениям
Вы можете скачивать файлы
Анализ сайта korsars.pro Яндекс.Метрика