Книга Бобы Фетта / The Book of Boba Fett [01x01-03 из 07] (2021) WEB-DLRip 1080p | D | Локализованная версия | Flarrow Films

Ответить на тему
Статистика раздачи [Обновить пиров]
Размер:  6,31 GB   |    Зарегистрирован:  4 дня   |    .torrent скачан:  126 раз
Раздают:  26  [  1 MB/s  ]   Качают:  27  [  1 MB/s  ]   Подробная статистика пиров
 
   
 
 
Автор Сообщение

flarrowfilms ®

Оффлайн

Медали
VIPДруг трекераСупер Мега Контер Квейк


Пол: Не указан

Стаж: 1 год 9 месяцев

Наличие запрета:

Сообщений: 106

Отдача: 5 Mb/s

Загрузка: 5 Mb/s

Нажми


Скачать Adguard бесплатно

Создавать темы 01-Янв-2022 01:26

[Цитировать]

Информация о фильме
Название: Книга Бобы Фетта
Оригинальное название: The Book of Boba Fett
Год выхода: 2021
Жанр: фантастика, боевик, драма, криминал, детектив, приключения
Режиссер: Роберт Родригес, Джон Фавро, Дэйв Филони
В ролях: Темуэра Моррисон, Мин-На Вэнь, Мэтт Берри, Дэвид Паскуэзи, Дженнифер Билз, Уэсли Киммел, Ксавье Джименез, Джоэнна Беннетт, Доун Дининжер, Бэрри Лоуин
О фильме:
Сюжет сериала расскажет о том, как наемник Боба Фетт возвращается на место своей гибели — планету Татуин. Здесь он и его напарник готовят план по захвату власти, чтобы отомстить Джаббе Хатту и его синдикату. Проект является сольным продолжением истории наемника, известного зрителям по полнометражным картинам и по второму сезону сериала "Мандалорец".

Страна: США
Продолжительность: 00:37:40
Перевод: Дублированный (профессиональный) | Flarrow Films
Роли дублировали: Борис Хасанов, Михаил Белякович, Константин Погодаев, Рина Чернышова, Дмитрий Лунёв, Ахилл Намазов, Алексей Гнеушев, Алёна Соколова, Рустам Шайхиев, Александр Карпов, Анастасия Козлова
Файл
Формат: MKV
Кодек: MPEG-4 AVC
Качество: WEB-DLRip 1080p (локализованный видеоряд)
Видео: 1920х1080, ~6 835 kb/s, 24.000, 8 bits
Аудио: Russian: AC-3, 320 kb/s, 2 channels, 48.0 kHz
Субтитры: русские (отключаемые)
Сэмпл: скачать-

MediaInfo

General
Unique ID : 192722360910862024402479401624640717870 (0x90FCFA015A0086A43464DE295D7C842E)
Complete name : C:\Flarrow\The.Book.of.Boba.Fett.S01.1080p.D.Flarrow.Films\The.Book.of.Boba.Fett.S01E01.mkv
Format : Matroska
Format version : Version 4
File size : 1.88 GiB
Duration : 37 min 40 s
Overall bit rate : 7 157 kb/s
Encoded date : UTC 2021-12-31 20:12:15
Writing application : mkvmerge v32.0.0 ('Astral Progressions') 64-bit
Writing library : libebml v1.3.7 + libmatroska v1.5.0
Video
ID : 1
Format : AVC
Format/Info : Advanced Video Codec
Format profile : High@L4
Format settings : CABAC / 4 Ref Frames
Format settings, CABAC : Yes
Format settings, Reference : 4 frames
Codec ID : V_MPEG4/ISO/AVC
Duration : 37 min 40 s
Bit rate : 6 835 kb/s
Width : 1 920 pixels
Height : 1 080 pixels
Display aspect ratio : 16:9
Frame rate mode : Constant
Frame rate : 24.000 FPS
Color space : YUV
Chroma subsampling : 4:2:0
Bit depth : 8 bits
Scan type : Progressive
Bits/(Pixel*Frame) : 0.137
Stream size : 1.80 GiB (95%)
Language : English
Default : Yes
Forced : No
Color range : Limited
Color primaries : BT.709
Transfer characteristics : BT.709
Matrix coefficients : BT.709
Audio
ID : 2
Format : AC-3
Format/Info : Audio Coding 3
Commercial name : Dolby Digital
Codec ID : A_AC3
Duration : 37 min 40 s
Bit rate mode : Constant
Bit rate : 320 kb/s
Channel(s) : 2 channels
Channel layout : L R
Sampling rate : 48.0 kHz
Frame rate : 31.250 FPS (1536 SPF)
Compression mode : Lossy
Stream size : 86.2 MiB (4%)
Service kind : Complete Main
Default : Yes
Forced : No
Text
ID : 3
Format : UTF-8
Codec ID : S_TEXT/UTF8
Codec ID/Info : UTF-8 Plain Text
Duration : 28 min 30 s
Bit rate : 37 b/s
Count of elements : 134
Stream size : 7.92 KiB (0%)
Default : Yes
Forced : No
--Релиз от: Flarrow Films
Примечание: Релиз без рекламы-18.01.2022 обновлено. Добавлена 3 серия-
[korsars.pro].t49889.torrent 
Торрент: Зарегистрирован [ 2022-01-18 19:30 ] · E7D28A7AE0D9FAD9104D0DA71ED02AA332BF9EEF

Скачать .torrent

Размер .torrent файла 16 KB

Статус: проверено
.torrent скачан: 126 раз
Размер: 6,31 GB
Правила
EStolniy23(01-Янв-22), testuser(01-Янв-22), KreetSeneseca(01-Янв-22), pfillipock(01-Янв-22), MARVEL(04-Янв-22), Тимур(19-Янв-22)
Похожие темы

Вы не зарегистрированы на нашем сайте. Вам доступна для скачивания только часть контента. Чтобы увидеть весь контент сайта, пожалуйста, зарегистрироруйтесь.

Дешевый и быстрый Сидбокс

Ключи и пин-коды

Игры, Кредитные карты, IP-телефония, Интернет провайдеры, Мобильная связь, Спутниковое ТВ

Электронные книги

Бизнес и экономика, Дом, быт, семья, досуг, Санкт-Петербург, Компьютеры и интернет, Наука и образование, Техническая литература, Юридическая литература

Цифровые товары

iTunes & App Store, Базы данных, Дизайн, Доступ к ресурсам, Kарты продления, ключи, Фотографии, Шаблоны для сайтов

Программное обеспечение

Безопасность, Игры, PC, Интернет, Мобильная связь, Программирование, Продвижение сайтов (SEO), Утилиты
У Вас отключен VIP статус, поэтому Вам показывается реклама на сайте. Вы можете поддержать наш ресурс и приобрести VIP статус, тем самым отключив показ рекламы на сайте, а ещё VIP пользователи получают возможность

смотреть аниме онлайн в HD качестве

(не распространяется на раздел Flarrow Films), а так же получить 5 инвайтов, которыми можно поделиться с друзьями или знакомыми.
Дешевый и быстрый Сидбокс

Ключи и пин-коды

Игры, Кредитные карты, IP-телефония, Интернет провайдеры, Мобильная связь, Спутниковое ТВ

Электронные книги

Бизнес и экономика, Дом, быт, семья, досуг, Санкт-Петербург, Компьютеры и интернет, Наука и образование, Техническая литература, Юридическая литература

Цифровые товары

iTunes & App Store, Базы данных, Дизайн, Доступ к ресурсам, Kарты продления, ключи, Фотографии, Шаблоны для сайтов

Программное обеспечение

Безопасность, Игры, PC, Интернет, Мобильная связь, Программирование, Продвижение сайтов (SEO), Утилиты


Последний раз редактировалось: flarrowfilms (2022-01-18 19:32), всего редактировалось 4 раз(а)
[Профиль] [ЛС]

KreetSeneseca

Оффлайн

Медали


Пол: Не указан

Стаж: 8 месяцев 13 дней

Наличие запрета:

Сообщений: 7

Отдача: не определено

Загрузка: не определено

Нажми


Скачать Adguard бесплатно

Создавать темы 01-Янв-2022 12:08 (спустя 10 часов)

[Цитировать]

Пока что самая лучшая озвучка! Мало того то это полный дубляж с локализацией, дык ещё и голос клонов из М\С Войны Клонов. Спасибо. Была бы работва то 500р минимум бы доната кинул.
[Профиль] [ЛС]
Показать сообщения:    
Ответить на тему

Текущее время: 22-Янв 22:05

Часовой пояс: UTC + 4



Вы не можете начинать темы
Вы не можете отвечать на сообщения
Вы не можете редактировать свои сообщения
Вы не можете удалять свои сообщения
Вы не можете голосовать в опросах
Вы не можете прикреплять файлы к сообщениям
Вы можете скачивать файлы
Анализ сайта korsars.pro Яндекс.Метрика