Безумное погружение: Потерянное дитя / Deep Insanity: The Lost Child [01x01-02 из 12] (2021) WEBRip 1080p от Fortuna.TV | StudioBand

Ответить на тему
Статистика раздачи [Обновить пиров]
Размер:  1,44 GB   |    Зарегистрирован:  4 дня   |    .torrent скачан:  19 раз
Раздают:  55  [  2 KB/s  ]   Качают:  15  [  13 KB/s  ]   Подробная статистика пиров
 
   
 
 
Автор Сообщение

loe3df ®

Оффлайн

Медали
VIPАктивный раздающий 1Активный раздающий 2Активный релизер Аниме (100)
Активный релизер Аниме (50)Орденосец 1 степени


Пол: Не указан

Стаж: 1 год 9 месяцев

Наличие запрета:

Сообщений: 360

Откуда: Die Welt von Hentai

Отдача: не определено

Загрузка: не определено

Нажми


Скачать Adguard бесплатно

Создавать темы 13-Окт-2021 02:44

[Цитировать]

Безумное погружение: Потерянное дитя / Deep Insanity: The Lost Child- Год выпуска: 2021
Страна: Япония
Жанр: Приключения, фантастика
Продолжительность: ~ 00:24:00
Перевод: Дублированный | StudioBand
Режиссёр: Син Онума
Возрастное ограничение: 18+-Рейтинг:
-Описание:
Недалекое будущее, в котором прошла эпидемия "Синдрома Рэндольфа" - болезни, вызывающей коматозное состояние. Примерно в то же время в Антарктиде обнаружили колоссальный пещерный комплекс Эсайлем, каким-то образом связанный с Синдромом Рэндольфа. Кроме того, в Эсайлеме обитают удивительные существа и залегают запасы неизвестных ранее полезных ископаемых. В поисках новых ресурсов и лекарства от Синдрома Рэндольфа, люди начинают исследовать Эсайлем.-Качество: WEBRip 1080p
Формат: MKV (MPEG-4 AVC)
Видео: 1920x1080, ~ 4 100 kb/s, 23.976 FPS. 8 bits
Аудио RUS: AAC LC, ~ 128 kb/s, 2 channels, 48.0 kHz
Аудио JAP: AAC LC, ~ 128 kb/s, 2 channels, 48.0 kHz
Субтитры: Русские полные (отключаемые) | Истари Комикс-

Скриншоты

MediaInfo

General
Unique ID : 313083634909520287121773765631849978945 (0xEB89B6FA5051786AF62FF3601D76DC41)
Complete name : [FT] Deep Insanity- The Lost Child - 01.mkv
Format : Matroska
Format version : Version 4
File size : 733 MiB
Duration : 24 min 39 s
Overall bit rate : 4 156 kb/s
Encoded date : UTC 2021-10-12 18:03:46
Writing application : mkvmerge v39.0.0 ('In The Waiting Line') 64-bit
Writing library : libebml v1.3.9 + libmatroska v1.5.2
Attachments : verdanab.ttf / verdanaz.ttf
Video
ID : 1
Format : AVC
Format/Info : Advanced Video Codec
Format profile : High@L4
Format settings : CABAC / 4 Ref Frames
Format settings, CABAC : Yes
Format settings, Reference frames : 4 frames
Codec ID : V_MPEG4/ISO/AVC
Duration : 23 min 40 s
Bit rate : 4 100 kb/s
Width : 1 920 pixels
Height : 1 080 pixels
Display aspect ratio : 16:9
Frame rate mode : Constant
Frame rate : 23.976 (24000/1001) FPS
Color space : YUV
Chroma subsampling : 4:2:0
Bit depth : 8 bits
Scan type : Progressive
Bits/(Pixel*Frame) : 0.082
Stream size : 689 MiB (94%)
Writing library : x264 core 155
Encoding settings : cabac=1 / ref=3 / deblock=1:0:0 / analyse=0x3:0x113 / me=hex / subme=6 / psy=1 / psy_rd=1.00:0.00 / mixed_ref=0 / me_range=16 / chroma_me=1 / trellis=1 / 8x8dct=1 / cqm=0 / deadzone=21,11 / fast_pskip=1 / chroma_qp_offset=-2 / threads=24 / lookahead_threads=4 / sliced_threads=0 / nr=0 / decimate=1 / interlaced=0 / bluray_compat=0 / constrained_intra=0 / bframes=3 / b_pyramid=2 / b_adapt=1 / b_bias=0 / direct=1 / weightb=1 / open_gop=0 / weightp=2 / keyint=250 / keyint_min=23 / scenecut=0 / intra_refresh=0 / rc_lookahead=40 / rc=abr / mbtree=1 / bitrate=4100 / ratetol=1.0 / qcomp=0.60 / qpmin=0 / qpmax=69 / qpstep=4 / vbv_maxrate=4700 / vbv_bufsize=23500 / nal_hrd=none / filler=0 / ip_ratio=1.40 / aq=1:1.00
Default : Yes
Forced : No
Audio #1
ID : 2
Format : AAC LC
Format/Info : Advanced Audio Codec Low Complexity
Codec ID : A_AAC-2
Duration : 23 min 39 s
Bit rate : 128 kb/s
Channel(s) : 2 channels
Channel layout : L R
Sampling rate : 48.0 kHz
Frame rate : 46.875 FPS (1024 SPF)
Compression mode : Lossy
Delay relative to video : 63 ms
Stream size : 21.7 MiB (3%)
Title : StudioBand
Language : Russian
Default : No
Forced : No
Audio #2
ID : 3
Format : AAC LC
Format/Info : Advanced Audio Codec Low Complexity
Codec ID : A_AAC-2
Duration : 23 min 40 s
Bit rate : 128 kb/s
Channel(s) : 2 channels
Channel layout : L R
Sampling rate : 48.0 kHz
Frame rate : 46.875 FPS (1024 SPF)
Compression mode : Lossy
Stream size : 21.7 MiB (3%)
Language : Japanese
Default : Yes
Forced : No
Text
ID : 4
Format : ASS
Codec ID : S_TEXT/ASS
Codec ID/Info : Advanced Sub Station Alpha
Duration : 24 min 13 s
Bit rate : 144 b/s
Count of elements : 299
Compression mode : Lossless
Stream size : 25.6 KiB (0%)
Title : Истари Комикс
Language : Russian
Default : No
Forced : No
Релиз от: Fortuna.TV-19.10.2021 обновлено. Добавлена 2-я серия. Приятного просмотра.

Релиз подготовлен Fortuna.TV

[korsars.pro].t47279.torrent 
Торрент: Зарегистрирован [ 2021-10-19 21:41 ] · 13CCE9D81871548C4126A0B359F121D139403689

Скачать .torrent

Размер .torrent файла 15 KB

Статус: проверено
.torrent скачан: 19 раз
Размер: 1,44 GB
Правила
4udaki(13-Окт-21), Reventor(13-Окт-21)
Похожие темы

Вы не зарегистрированы на нашем сайте. Вам доступна для скачивания только часть контента. Чтобы увидеть весь контент сайта, пожалуйста, зарегистрироруйтесь.

Дешевый и быстрый Сидбокс

Ключи и пин-коды

Игры, Кредитные карты, IP-телефония, Интернет провайдеры, Мобильная связь, Спутниковое ТВ

Электронные книги

Бизнес и экономика, Дом, быт, семья, досуг, Санкт-Петербург, Компьютеры и интернет, Наука и образование, Техническая литература, Юридическая литература

Цифровые товары

iTunes & App Store, Базы данных, Дизайн, Доступ к ресурсам, Kарты продления, ключи, Фотографии, Шаблоны для сайтов

Программное обеспечение

Безопасность, Игры, PC, Интернет, Мобильная связь, Программирование, Продвижение сайтов (SEO), Утилиты
У Вас отключен VIP статус, поэтому Вам показывается реклама на сайте. Вы можете поддержать наш ресурс и приобрести VIP статус, тем самым отключив показ рекламы на сайте, а ещё VIP пользователи получают возможность

смотреть аниме онлайн в HD качестве

(не распространяется на раздел Flarrow Films), а так же получить 5 инвайтов, которыми можно поделиться с друзьями или знакомыми.
Дешевый и быстрый Сидбокс

Ключи и пин-коды

Игры, Кредитные карты, IP-телефония, Интернет провайдеры, Мобильная связь, Спутниковое ТВ

Электронные книги

Бизнес и экономика, Дом, быт, семья, досуг, Санкт-Петербург, Компьютеры и интернет, Наука и образование, Техническая литература, Юридическая литература

Цифровые товары

iTunes & App Store, Базы данных, Дизайн, Доступ к ресурсам, Kарты продления, ключи, Фотографии, Шаблоны для сайтов

Программное обеспечение

Безопасность, Игры, PC, Интернет, Мобильная связь, Программирование, Продвижение сайтов (SEO), Утилиты


Последний раз редактировалось: loe3df (2021-10-20 09:42), всего редактировалось 1 раз
[Профиль] [ЛС]

loe3df ®

Оффлайн

Медали
VIPАктивный раздающий 1Активный раздающий 2Активный релизер Аниме (100)
Активный релизер Аниме (50)Орденосец 1 степени


Пол: Не указан

Стаж: 1 год 9 месяцев

Наличие запрета:

Сообщений: 360

Откуда: Die Welt von Hentai

Отдача: не определено

Загрузка: не определено

Нажми


Скачать Adguard бесплатно

Создавать темы 19-Окт-2021 21:41 (спустя 6 дней)

[Цитировать]

19.10.2021 обновлено. Добавлена 2-я серия. Приятного просмотра.


Последний раз редактировалось: loe3df (2021-10-20 09:41), всего редактировалось 1 раз
[Профиль] [ЛС]

4udaki

Онлайн

Медали


Пол: Мужской

Стаж: 6 лет 11 месяцев

Наличие запрета:

Сообщений: 11568

Откуда: korsars.pro

Отдача: 2 Mb/s

Загрузка: 20 Mb/s

Нажми


Скачать Adguard бесплатно

Создавать темы 19-Окт-2021 22:58 (спустя 1 час 16 минут)

[Цитировать]

5600719.10.2021 обновлено. Добавлена 3-я серия. Приятного просмотра.
Может всё таки 2я?))
[Профиль] [ЛС]

loe3df ®

Оффлайн

Медали
VIPАктивный раздающий 1Активный раздающий 2Активный релизер Аниме (100)
Активный релизер Аниме (50)Орденосец 1 степени


Пол: Не указан

Стаж: 1 год 9 месяцев

Наличие запрета:

Сообщений: 360

Откуда: Die Welt von Hentai

Отдача: не определено

Загрузка: не определено

Нажми


Скачать Adguard бесплатно

Создавать темы 20-Окт-2021 09:42 (спустя 10 часов)

[Цитировать]

56010
5600719.10.2021 обновлено. Добавлена 3-я серия. Приятного просмотра.
Может всё таки 2я?))
Ага)))
[Профиль] [ЛС]
Показать сообщения:    
Ответить на тему

Текущее время: 24-Окт 19:56

Часовой пояс: UTC + 4



Вы не можете начинать темы
Вы не можете отвечать на сообщения
Вы не можете редактировать свои сообщения
Вы не можете удалять свои сообщения
Вы не можете голосовать в опросах
Вы не можете прикреплять файлы к сообщениям
Вы можете скачивать файлы
Анализ сайта korsars.pro Яндекс.Метрика