У Коми проблемы с общением / Komi-san wa, Komyushou Desu [01x01-02 из 12] (2021) WEBRip 1080p | L, L2 | Anilibria, DreamCast, JAMCLUB

Ответить на тему
Статистика раздачи [Обновить пиров]
Размер:  1,03 GB   |    Зарегистрирован:  7 дней   |    .torrent скачан:  7 раз
Раздают:  20  [  0 KB/s  ]   Качают:  5  [  0 KB/s  ]   Подробная статистика пиров
 
   
 
 
Автор Сообщение

VLDeshka ®

Оффлайн

Медали


Пол: Не указан

Стаж: 1 год

Наличие запрета:

Сообщений: 53

Отдача: 2 Mb/s

Загрузка: 20 Mb/s

Нажми


Скачать Adguard бесплатно

Создавать темы 10-Окт-2021 17:04

[Цитировать]

У Коми проблемы с общением / Komi-san wa, Komyushou Desu-Год выпуска: 2021
Страна: Япония
Жанр: Комедия, романтика, повседневность, школа
Продолжительность: ~ 00:24:00 (серия)
Перевод: Любительский многоголосый, любительский двухголосый
Возрастное ограничение: PG-13-В ролях: Аои Кога, Гакуто Кадзивара, Юкиё Фудзии, Норико Хидака, Рина Хидака, Риэ Муракава, Руми Окубо, Кэнсё Оно
Режиссёр: Аюму Ватанабэ-Рейтинг:
-Описание: История о старшекласснике по имени Сёко Коми. Всё прекрасно знают, что данная девушка настолько прекрасна и мила, что любой из парней готов ради неё на многое. И действительно Коми может похвастаться исключительно природной красотой, но у неё существуют также и некоторые «недостатки». Точнее один недостаток: она малообщительна со своими сверстниками. Фактически это становится причиной, когда девушка несмотря на свою популярность, сталкивается с различными трудностями в плане общения. И об этом «секрете» становится известно одному старшекласснику по имени Хитохито Тадано. Парень прекрасно осведомлён о таком недостатке, и единственный кто решает не насмехаться, а помочь красавице. И именно Тадано станет тем, кому Коми начнёт доверять, ведь она спустя много лет хочет избавиться от таких привычек. Сделать это можно только одним способом: объединив усилия. То есть, Сёко будет слушать советы Тадано и учиться ладить с другими сверстниками, путём общения. Ну а сам парень становится настоящим другом для красавицы, и получает свою возможность понравится ей, и попробовать даже романтические отношения.-Качество: WEBRip (1080p)
Формат: MKV (MPEG-4 AVC)
Видео: 1920x1080, ~ 2 200 kb/s, 23.976 FPS. 8 bits
Аудио #1: AAC LC, ~ 192 kb/s, 2 channels, 48.0 kHz | Anilibria [Amikiri, Derenn, Sharon, Silv]
Аудио #2: AAC LC, ~ 192 kb/s, 2 channels, 48.0 kHz | DreamCast [Nika Lenina, Orru, Indominus Rex, Inferno_Phantom]
Аудио #3: AAC LC, ~ 192 kb/s, 2 channels, 48.0 kHz | JAMCLUB [Jam, Trina_D]
Аудио #4: AAC LC, ~ 192 kb/s, 2 channels, 48.0 kHz | Original
Субтитры: Русские (полные, на надписи, отключаемые)-

MediaInfo

Общее
Уникальный идентификатор : 310718985936229780248778514301082197210 (0xE9C24CC83D7A2413F515D88BCDF0DCDA)
Полное имя : D:\tor\Komisan.wa.Komyushou.Desu.[S1].WEBRip.1080p\Komi-san wa, Komyushou desu - 01.mkv
Формат : Matroska
Версия формата : Version 4
Размер файла : 496 Мбайт
Продолжительность : 23 м. 52 с.
Режим общего битрейта : Переменный
Общий поток : 2 906 Кбит/сек
Дата кодирования : UTC 2021-10-16 10:59:05
Программа кодирования : mkvmerge v31.0.0 ('Dolores In A Shoestand') 64-bit
Библиотека кодирования : libebml v1.3.6 + libmatroska v1.4.9
Attachments : artnouv.ttf / Beast vs SpreadTall.ttf / calligra.ttf / DS_Eraser_Cyr.ttf / ofont.ru_Tahoma.ttf / vcrosdmonorusbyd.ttf
Видео
Идентификатор : 1
Формат : AVC
Формат/Информация : Advanced Video Codec
Профиль формата : Main@L4
Настройки формата : CABAC / 3 Ref Frames
Параметр CABAC формата : Да
Параметр RefFrames формата : 3 кадра
Идентификатор кодека : V_MPEG4/ISO/AVC
Продолжительность : 23 м. 51 с.
Вид битрейта : Переменный
Битрейт : 2 126 Кбит/сек
Номинальный битрейт : 2 652 Кбит/сек
Максимальный битрейт : 4 980 Кбит/сек
Ширина : 1 920 пикселей
Высота : 1 080 пикселей
Соотношение сторон : 16:9
Режим частоты кадров : Постоянный
Частота кадров : 23,976 (24000/1001) кадра/сек
Цветовое пространство : YUV
Субдискретизация насыщенности : 4:2:0
Битовая глубина : 8 бит
Тип развёртки : Прогрессивная
Бит/(Пиксели*Кадры) : 0.043
Размер потока : 363 Мбайт (73%)
Библиотека кодирования : x264 core 148 r2724 dbe0335
Настройки программы : cabac=1 / ref=3 / deblock=1:0:0 / analyse=0x1:0x111 / me=umh / subme=10 / psy=1 / psy_rd=1.00:0.00 / mixed_ref=1 / me_range=24 / chroma_me=1 / trellis=2 / 8x8dct=0 / cqm=0 / deadzone=21,11 / fast_pskip=1 / chroma_qp_offset=-2 / threads=6 / lookahead_threads=1 / sliced_threads=0 / nr=0 / decimate=1 / interlaced=0 / bluray_compat=0 / stitchable=1 / constrained_intra=0 / bframes=2 / b_pyramid=0 / b_adapt=2 / b_bias=0 / direct=3 / weightb=1 / open_gop=0 / weightp=2 / keyint=250 / keyint_min=23 / scenecut=0 / intra_refresh=0 / rc_lookahead=48 / rc=2pass / mbtree=1 / bitrate=2652 / ratetol=1.0 / qcomp=0.50 / qpmin=6 / qpmax=51 / qpstep=4 / cplxblur=20.0 / qblur=0.5 / vbv_maxrate=4980 / vbv_bufsize=6640 / nal_hrd=vbr / filler=0 / ip_ratio=1.40 / aq=1:1.00
Язык : Japanese
Default : Да
Forced : Да
Аудио #1
Идентификатор : 2
Формат : AAC LC
Формат/Информация : Advanced Audio Codec Low Complexity
Идентификатор кодека : A_AAC-2
Продолжительность : 23 м. 52 с.
Битрейт : 192 Кбит/сек
Каналы : 2 канала
Channel layout : L R
Частота : 48,0 КГц
Частота кадров : 46,875 кадров/сек (1024 SPF)
Метод сжатия : С потерями
Размер потока : 32,8 Мбайт (7%)
Заголовок : AniLibria.TV
Язык : Russian
Default : Да
Forced : Да
Аудио #2
Идентификатор : 3
Формат : AAC LC
Формат/Информация : Advanced Audio Codec Low Complexity
Идентификатор кодека : A_AAC-2
Продолжительность : 23 м. 51 с.
Битрейт : 192 Кбит/сек
Каналы : 2 канала
Channel layout : L R
Частота : 48,0 КГц
Частота кадров : 46,875 кадров/сек (1024 SPF)
Метод сжатия : С потерями
Размер потока : 32,3 Мбайт (7%)
Заголовок : DreamCast
Язык : Russian
Default : Нет
Forced : Нет
Аудио #3
Идентификатор : 4
Формат : AAC LC
Формат/Информация : Advanced Audio Codec Low Complexity
Идентификатор кодека : A_AAC-2
Продолжительность : 23 м. 52 с.
Битрейт : 197 Кбит/сек
Каналы : 2 канала
Channel layout : L R
Частота : 48,0 КГц
Частота кадров : 46,875 кадров/сек (1024 SPF)
Метод сжатия : С потерями
Размер потока : 33,6 Мбайт (7%)
Заголовок : JAMCLUB
Язык : Russian
Default : Нет
Forced : Нет
Аудио #4
Идентификатор : 5
Формат : AAC LC
Формат/Информация : Advanced Audio Codec Low Complexity
Идентификатор кодека : A_AAC-2
Продолжительность : 23 м. 52 с.
Битрейт : 192 Кбит/сек
Каналы : 2 канала
Channel layout : L R
Частота : 48,0 КГц
Частота кадров : 46,875 кадров/сек (1024 SPF)
Метод сжатия : С потерями
Размер потока : 32,8 Мбайт (7%)
Заголовок : Original
Язык : Japanese
Default : Нет
Forced : Нет
Текст #1
Идентификатор : 6
Формат : ASS
Идентификатор кодека : S_TEXT/ASS
Идентификатор кодека/Информация : Advanced Sub Station Alpha
Продолжительность : 22 м. 6 с.
Битрейт : 71 бит/сек
Count of elements : 86
Метод сжатия : Без потерь
Размер потока : 11,7 Кбайт (0%)
Заголовок : Надписи
Язык : Russian
Default : Да
Forced : Да
Текст #2
Идентификатор : 7
Формат : ASS
Идентификатор кодека : S_TEXT/ASS
Идентификатор кодека/Информация : Advanced Sub Station Alpha
Продолжительность : 23 м. 49 с.
Битрейт : 154 бит/сек
Count of elements : 291
Метод сжатия : Без потерь
Размер потока : 27,0 Кбайт (0%)
Заголовок : Полные
Язык : Russian
Default : Нет
Forced : Нет
[korsars.pro].t47171.torrent 
Торрент: Зарегистрирован [ 2021-10-16 23:38 ] · 5EA2928A6BB69474FF960045B84074F162EDE810

Скачать .torrent

Размер .torrent файла 11 KB

Статус: проверено
.torrent скачан: 7 раз
Размер: 1,03 GB
Торрент обновлен. Добавлена 2-я серия. Сетевой
Правила
4udaki(16-Окт-21)
Похожие темы

Вы не зарегистрированы на нашем сайте. Вам доступна для скачивания только часть контента. Чтобы увидеть весь контент сайта, пожалуйста, зарегистрироруйтесь.

Дешевый и быстрый Сидбокс

Ключи и пин-коды

Игры, Кредитные карты, IP-телефония, Интернет провайдеры, Мобильная связь, Спутниковое ТВ

Электронные книги

Бизнес и экономика, Дом, быт, семья, досуг, Санкт-Петербург, Компьютеры и интернет, Наука и образование, Техническая литература, Юридическая литература

Цифровые товары

iTunes & App Store, Базы данных, Дизайн, Доступ к ресурсам, Kарты продления, ключи, Фотографии, Шаблоны для сайтов

Программное обеспечение

Безопасность, Игры, PC, Интернет, Мобильная связь, Программирование, Продвижение сайтов (SEO), Утилиты
У Вас отключен VIP статус, поэтому Вам показывается реклама на сайте. Вы можете поддержать наш ресурс и приобрести VIP статус, тем самым отключив показ рекламы на сайте, а ещё VIP пользователи получают возможность

смотреть аниме онлайн в HD качестве

(не распространяется на раздел Flarrow Films), а так же получить 5 инвайтов, которыми можно поделиться с друзьями или знакомыми.
Дешевый и быстрый Сидбокс

Ключи и пин-коды

Игры, Кредитные карты, IP-телефония, Интернет провайдеры, Мобильная связь, Спутниковое ТВ

Электронные книги

Бизнес и экономика, Дом, быт, семья, досуг, Санкт-Петербург, Компьютеры и интернет, Наука и образование, Техническая литература, Юридическая литература

Цифровые товары

iTunes & App Store, Базы данных, Дизайн, Доступ к ресурсам, Kарты продления, ключи, Фотографии, Шаблоны для сайтов

Программное обеспечение

Безопасность, Игры, PC, Интернет, Мобильная связь, Программирование, Продвижение сайтов (SEO), Утилиты


Последний раз редактировалось: VLDeshka (2021-10-17 01:38), всего редактировалось 6 раз(а)
[Профиль] [ЛС]

VLDeshka ®

Оффлайн

Медали


Пол: Не указан

Стаж: 1 год

Наличие запрета:

Сообщений: 53

Отдача: 2 Mb/s

Загрузка: 20 Mb/s

Нажми


Скачать Adguard бесплатно

Создавать темы 16-Окт-2021 23:40 (спустя 6 дней)

[Цитировать]

Добавлена 2-я серия. Также добавлена озвучка от Anilibria и JAMCLUB + оригинальная дорожка + субтитры
[Профиль] [ЛС]
Показать сообщения:    
Ответить на тему

Текущее время: 24-Окт 19:37

Часовой пояс: UTC + 4



Вы не можете начинать темы
Вы не можете отвечать на сообщения
Вы не можете редактировать свои сообщения
Вы не можете удалять свои сообщения
Вы не можете голосовать в опросах
Вы не можете прикреплять файлы к сообщениям
Вы можете скачивать файлы
Анализ сайта korsars.pro Яндекс.Метрика