86 (Восемьдесят шесть) / 86 (Eighty-Six) [S01-02x14 из 23] (2021) WEBRip 1080p | L2 | SergeyVasya, Mamzelka

Ответить на тему
Статистика раздачи [Обновить пиров]
Размер:  9,43 GB   |    Зарегистрирован:  1 день 4 часа   |    .torrent скачан:  2 раза
Раздают:  21  [  70 KB/s  ]   Качают:  26  [  389 KB/s  ]   Подробная статистика пиров
 
   
 
 
Автор Сообщение

VLDeshka ®

Оффлайн

Медали


Пол: Не указан

Стаж: 1 год

Наличие запрета:

Сообщений: 53

Отдача: 2 Mb/s

Загрузка: 20 Mb/s

Нажми


Скачать Adguard бесплатно

Создавать темы 10-Окт-2021 16:37

[Цитировать]

86 (Восемьдесят шесть) / 86 (Eighty-Six)-Год выпуска: 2021
Страна: Япония
Жанр: Экшен, военный, фантастика, драма, меха
Продолжительность: ~ 00:24:00 (серия)
Перевод: Любительский двухголосый
Возрастное ограничение: R-17-В ролях: Сёя Тиба, Икуми Хасэгава, Саори Хаями, Масаму Оно, Харуки Исия, Дайки Ямасита, Рихо Сугияма, Сатоси Миками, Харука Сираиси, Саюми Судзусиро, Тайтэн Кусуноки, Синъэй Уэки, Маюко Кадзама, Юка Нукуи, Тайси Мурата, Сэйитиро Ямасита, Сидзука Исигами, Нацуми Фудзивара, Кацуми Фукухара, Тайто Бан
Режиссёр: Тосимаса Исии-Рейтинг:
-Описание: Долгое время Республика Сан-Магнолия находится в военном конфликте с Империей, соседним государством, которое создало серию беспилотных военных машин. В ответ на угрозу республика успешно завершает разработку аналогичной технологии и отражает атаку противника, сумев обойтись без жертв. Однако это... официальная версия. На самом деле жертвы были. За пределами известных восьмидесяти пяти районов республики фактически был ещё один, «несуществующий» 86-й округ. Именно там днём и ночью шли бои, в которых принимали участие члены отряда «Восемьдесят шесть», управляя беспилотниками. Встаёт закономерный вопрос: сможет ли государственный строй, при которой правительство беспокоится только о личной выгоде, привести государство к процветанию? Ждёт ли счастье участников военных действий, что с той, что с другой стороны, которые каждый день рискуют жизнями и теряют друзей и близких? Безнаказанны ли останутся те, кто находится далеко от поля битвы, где им не угрожает опасность, благодаря чему они начинают думать, что война не так уж и страшна, а даже забавна.-Качество: WEBRip (1080p)
Формат: MKV (MPEG-4 AVC)
Видео: 1920x1080, ~ 4 500 kb/s, 23.976 FPS. 8 bits
Аудио: AAC LC, ~ 192 kb/s, 2 channels, 48.0 kHz | SergeyVasya, Mamzelka
Субтитры: Русские (вшитые, на надписи)-

MediaInfo

Общее
Уникальный идентификатор : 9190314737806026339851732656687680793 (0x6E9FD800DA581BD5FCFEA2541240D19)
Полное имя : D:\tor\86.Eighty.Six.[S01-02].WEBRip.1080p_[SergeyVasya]\86 - Eighty Six - 01.mkv
Формат : Matroska
Версия формата : Version 4
Размер файла : 796 Мбайт
Продолжительность : 23 м. 40 с.
Режим общего битрейта : Переменный
Общий поток : 4 701 Кбит/сек
Дата кодирования : UTC 2021-07-27 17:55:06
Программа кодирования : mkvmerge v31.0.0 ('Dolores In A Shoestand') 64-bit
Библиотека кодирования : libebml v1.3.6 + libmatroska v1.4.9
Видео
Идентификатор : 2
Формат : AVC
Формат/Информация : Advanced Video Codec
Профиль формата : High@L4.1
Настройки формата : CABAC / 2 Ref Frames
Параметр CABAC формата : Да
Параметр RefFrames формата : 2 кадра
Параметр GOP формата : M=2, N=48
Идентификатор кодека : V_MPEG4/ISO/AVC
Продолжительность : 23 м. 40 с.
Вид битрейта : Переменный
Битрейт : 4 510 Кбит/сек
Максимальный битрейт : 8 000 Кбит/сек
Ширина : 1 920 пикселей
Высота : 1 080 пикселей
Соотношение сторон : 16:9
Режим частоты кадров : Постоянный
Частота кадров : 23,976 (24000/1001) кадра/сек
Цветовое пространство : YUV
Субдискретизация насыщенности : 4:2:0
Битовая глубина : 8 бит
Тип развёртки : Прогрессивная
Бит/(Пиксели*Кадры) : 0.091
Размер потока : 763 Мбайт (96%)
Default : Да
Forced : Нет
Аудио
Идентификатор : 1
Формат : AAC LC
Формат/Информация : Advanced Audio Codec Low Complexity
Идентификатор кодека : A_AAC-2
Продолжительность : 23 м. 40 с.
Битрейт : 192 Кбит/сек
Каналы : 2 канала
Channel layout : L R
Частота : 48,0 КГц
Частота кадров : 46,875 кадров/сек (1024 SPF)
Метод сжатия : С потерями
Размер потока : 32,1 Мбайт (4%)
Default : Да
Forced : Нет
[korsars.pro].t47163.torrent 
Торрент: Зарегистрирован [ Вчера, в 15:26 ] · C900DD2558F952D14AB5969E9FD7EE171F4DDCFA

Скачать .torrent

Размер .torrent файла 25 KB

Статус: проверено
.torrent скачан: 2 раз
Размер: 9,43 GB
Торрент обновлен. Добавлена 14-я серия
Правила
Похожие темы

Вы не зарегистрированы на нашем сайте. Вам доступна для скачивания только часть контента. Чтобы увидеть весь контент сайта, пожалуйста, зарегистрироруйтесь.

Дешевый и быстрый Сидбокс

Ключи и пин-коды

Игры, Кредитные карты, IP-телефония, Интернет провайдеры, Мобильная связь, Спутниковое ТВ

Электронные книги

Бизнес и экономика, Дом, быт, семья, досуг, Санкт-Петербург, Компьютеры и интернет, Наука и образование, Техническая литература, Юридическая литература

Цифровые товары

iTunes & App Store, Базы данных, Дизайн, Доступ к ресурсам, Kарты продления, ключи, Фотографии, Шаблоны для сайтов

Программное обеспечение

Безопасность, Игры, PC, Интернет, Мобильная связь, Программирование, Продвижение сайтов (SEO), Утилиты
У Вас отключен VIP статус, поэтому Вам показывается реклама на сайте. Вы можете поддержать наш ресурс и приобрести VIP статус, тем самым отключив показ рекламы на сайте, а ещё VIP пользователи получают возможность

смотреть аниме онлайн в HD качестве

(не распространяется на раздел Flarrow Films), а так же получить 5 инвайтов, которыми можно поделиться с друзьями или знакомыми.
Дешевый и быстрый Сидбокс

Ключи и пин-коды

Игры, Кредитные карты, IP-телефония, Интернет провайдеры, Мобильная связь, Спутниковое ТВ

Электронные книги

Бизнес и экономика, Дом, быт, семья, досуг, Санкт-Петербург, Компьютеры и интернет, Наука и образование, Техническая литература, Юридическая литература

Цифровые товары

iTunes & App Store, Базы данных, Дизайн, Доступ к ресурсам, Kарты продления, ключи, Фотографии, Шаблоны для сайтов

Программное обеспечение

Безопасность, Игры, PC, Интернет, Мобильная связь, Программирование, Продвижение сайтов (SEO), Утилиты
[Профиль] [ЛС]

VLDeshka ®

Оффлайн

Медали


Пол: Не указан

Стаж: 1 год

Наличие запрета:

Сообщений: 53

Отдача: 2 Mb/s

Загрузка: 20 Mb/s

Нажми


Скачать Adguard бесплатно

Создавать темы Вчера, в 15:27 (спустя 12 дней)

[Цитировать]

Добавлена 14-я серия
[Профиль] [ЛС]
Показать сообщения:    
Ответить на тему

Текущее время: 24-Окт 19:28

Часовой пояс: UTC + 4



Вы не можете начинать темы
Вы не можете отвечать на сообщения
Вы не можете редактировать свои сообщения
Вы не можете удалять свои сообщения
Вы не можете голосовать в опросах
Вы не можете прикреплять файлы к сообщениям
Вы можете скачивать файлы
Анализ сайта korsars.pro Яндекс.Метрика