Такт Опус. Судьба / Takt Op. Destiny [01x01-02 из 12] (2021) WEBRip 1080p | L, L2 | DreamCast, Anilibria

Ответить на тему
Статистика раздачи [Обновить пиров]
Размер:  1,4 GB   |    Зарегистрирован:  10 дней   |    .torrent скачан:  3 раза
Раздают:  23  [  312 KB/s  ]   Качают:  9  [  2 MB/s  ]   Подробная статистика пиров
 
   
 
 
Автор Сообщение

VLDeshka ®

Оффлайн

Медали


Пол: Не указан

Стаж: 1 год

Наличие запрета:

Сообщений: 53

Отдача: 2 Mb/s

Загрузка: 20 Mb/s

Нажми


Скачать Adguard бесплатно

Создавать темы 10-Окт-2021 15:40

[Цитировать]

Такт Опус. Судьба / Takt Op. Destiny-Год выпуска: 2021
Страна: Япония
Жанр: Экшен, боевик, комедия, музыкальный
Продолжительность: ~ 00:24:00 (серия)
Перевод: Любительский многоголосый, любительский двухголосый
Возрастное ограничение: PG-13-В ролях: Коки Утияма, Сион Вакаяма, Каэдэ Хондо, Рэйна Уэда, Мику Ито, Сатоси Хино, Эйдзи Ханава, Дайсукэ Намикава, Инори Минасэ
Режиссёр: Юки Ито-Рейтинг:
-Описание: 2047 год. На Землю упал чёрный метеорит, который полностью изменил судьбу человечества. Метеорит «породил» монстров, которые получили название — D2. Монстры начали бесчинствовать, усугубляя немалый ущерб, нанесённый падением метеорита. Монстры оказались практически неуязвимы, так что человечеству пришлось подчиниться. Единственным слабым местом D2 была, как оказалось, музыка, которая могла причинить им боль. Поэтому, захватив планету, D2 тотчас запретили любые звуки, так или иначе похожие на мелодию, так что музыка практически исчезла из жизни людей. Однако были и те, кто был не готов смириться с таким положением дел. Возникло сопротивление: группа девушек, деятелей искусства, известные как Мьюзикарт, решили бороться с захватчиками. Девушки носят в себе оружие против монстров: в их телах скрыты симфонии, способные уничтожить D2. Одна из участниц группы по имени Уммэй заключает контракт с Тактом, молодым дирижёром. Объединённые стремлением к возрождению музыки и освобождению мира, Уммэй и Такт начинают свою битву в Нью-Йорке.-Качество: WEBRip (1080p)
Формат: MKV (MPEG-4 AVC)
Видео: 1920x1080, ~ 3 700 kb/s, 23.976 FPS. 8 bits
Аудио #1: AAC LC, ~ 192-320 kb/s, 2 channels, 48.0 kHz | Любительский (многоголосый, закадровый) | SergeyVasya, Mamzelka и неизвестный голос (Гость)
Аудио #2: AAC LC, ~ 192 kb/s, 2 channels, 48.0 kHz | Любительский (многоголосый, закадровый) | DreamCast [Nika Lenina, Orru, Indominus Rex, Inferno_Phantom]
Аудио #3: AAC LC, ~ 192 kb/s, 2 channels, 48.0 kHz | Любительский (двухголосый, закадровый) | Anilibria [Dejz, OkanaTsoy]
Аудио #4: AAC LC, ~ 128 kb/s, 2 channels, 44.1 kHz | Original
Субтитры: Русские (полные, отключаемые)-

MediaInfo

Общее
Уникальный идентификатор : 84150928253562961601806468956767688379 (0x3F4EE116FF28180D04D9FEEBB4E896BB)
Полное имя : D:\tor\Takt.Opus.Destiny.[S1].WEBRip.1080p\Takt Op. Destiny - 01.mkv
Формат : Matroska
Версия формата : Version 4
Размер файла : 770 Мбайт
Продолжительность : 23 м. 40 с.
Общий поток : 4 551 Кбит/сек
Дата кодирования : UTC 2021-10-10 10:45:18
Программа кодирования : mkvmerge v31.0.0 ('Dolores In A Shoestand') 64-bit
Библиотека кодирования : libebml v1.3.6 + libmatroska v1.4.9
Attachments : tahoma.ttf / Roboto-Medium.ttf / Roboto-MediumItalic.ttf / arial.ttf / arialbd.ttf / comic.ttf / comicbd.ttf / times.ttf / timesbd.ttf / trebuc.ttf / trebucbd.ttf / verdana.ttf / verdanab.ttf
Видео
Идентификатор : 1
Формат : AVC
Формат/Информация : Advanced Video Codec
Профиль формата : High@L4.1
Настройки формата : CABAC / 4 Ref Frames
Параметр CABAC формата : Да
Параметр RefFrames формата : 4 кадра
Идентификатор кодека : V_MPEG4/ISO/AVC
Продолжительность : 23 м. 40 с.
Битрейт : 3 680 Кбит/сек
Ширина : 1 920 пикселей
Высота : 1 080 пикселей
Соотношение сторон : 16:9
Режим частоты кадров : Постоянный
Частота кадров : 23,976 (24000/1001) кадра/сек
Цветовое пространство : YUV
Субдискретизация насыщенности : 4:2:0
Битовая глубина : 8 бит
Тип развёртки : Прогрессивная
Бит/(Пиксели*Кадры) : 0.074
Размер потока : 623 Мбайт (81%)
Библиотека кодирования : x264 core 161 r3048 b86ae3c
Настройки программы : cabac=1 / ref=4 / deblock=1:1:1 / analyse=0x3:0x113 / me=umh / subme=9 / psy=1 / psy_rd=1.00:0.00 / mixed_ref=1 / me_range=16 / chroma_me=1 / trellis=2 / 8x8dct=1 / cqm=0 / deadzone=21,11 / fast_pskip=1 / chroma_qp_offset=-2 / threads=18 / lookahead_threads=1 / sliced_threads=0 / nr=0 / decimate=1 / interlaced=0 / bluray_compat=0 / constrained_intra=0 / bframes=5 / b_pyramid=2 / b_adapt=1 / b_bias=0 / direct=3 / weightb=1 / open_gop=0 / weightp=2 / keyint=250 / keyint_min=23 / scenecut=40 / intra_refresh=0 / rc_lookahead=50 / rc=crf / mbtree=1 / crf=17.0 / qcomp=0.60 / qpmin=0 / qpmax=69 / qpstep=4 / vbv_maxrate=12000 / vbv_bufsize=12000 / crf_max=0.0 / nal_hrd=none / filler=0 / ip_ratio=1.40 / aq=1:0.60
Default : Да
Forced : Нет
Аудио #1
Идентификатор : 2
Формат : AAC LC
Формат/Информация : Advanced Audio Codec Low Complexity
Идентификатор кодека : A_AAC-2
Продолжительность : 23 м. 40 с.
Битрейт : 317 Кбит/сек
Каналы : 2 канала
Channel layout : L R
Частота : 48,0 КГц
Частота кадров : 46,875 кадров/сек (1024 SPF)
Метод сжатия : С потерями
Размер потока : 53,7 Мбайт (7%)
Default : Да
Forced : Нет
Аудио #2
Идентификатор : 3
Формат : AAC LC
Формат/Информация : Advanced Audio Codec Low Complexity
Идентификатор кодека : A_AAC-2
Продолжительность : 23 м. 40 с.
Битрейт : 192 Кбит/сек
Каналы : 2 канала
Channel layout : L R
Частота : 48,0 КГц
Частота кадров : 46,875 кадров/сек (1024 SPF)
Метод сжатия : С потерями
Размер потока : 32,1 Мбайт (4%)
Default : Нет
Forced : Нет
Аудио #3
Идентификатор : 4
Формат : AAC LC
Формат/Информация : Advanced Audio Codec Low Complexity
Идентификатор кодека : A_AAC-2
Продолжительность : 23 м. 40 с.
Битрейт : 192 Кбит/сек
Каналы : 2 канала
Channel layout : L R
Частота : 48,0 КГц
Частота кадров : 46,875 кадров/сек (1024 SPF)
Метод сжатия : С потерями
Размер потока : 33,0 Мбайт (4%)
Заголовок : AniLibria.TV
Язык : Russian
Default : Нет
Forced : Нет
Аудио #4
Идентификатор : 5
Формат : AAC LC
Формат/Информация : Advanced Audio Codec Low Complexity
Идентификатор кодека : A_AAC-2
Продолжительность : 23 м. 40 с.
Битрейт : 128 Кбит/сек
Каналы : 2 канала
Channel layout : L R
Частота : 44,1 КГц
Частота кадров : 43,066 кадра/сек (1024 SPF)
Метод сжатия : С потерями
Размер потока : 21,7 Мбайт (3%)
Заголовок : Original [SubsPlease]
Язык : Japanese
Default : Нет
Forced : Нет
Текст
Идентификатор : 6
Формат : ASS
Идентификатор кодека : S_TEXT/ASS
Идентификатор кодека/Информация : Advanced Sub Station Alpha
Продолжительность : 22 м. 8 с.
Битрейт : 166 бит/сек
Count of elements : 271
Метод сжатия : Без потерь
Размер потока : 26,9 Кбайт (0%)
Заголовок : Полные [ред. AniLibria.TV]
Язык : Russian
Default : Нет
Forced : Нет
[korsars.pro].t47162.torrent 
Торрент: Зарегистрирован [ 2021-10-14 14:49 ] · B77371CDF1C37D45F2D78D73D3540FCC8FDECF2D

Скачать .torrent

Размер .torrent файла 14 KB

Статус: проверено
.torrent скачан: 3 раз
Размер: 1,4 GB
Добавлена 2-я серия
Правила

Вы не зарегистрированы на нашем сайте. Вам доступна для скачивания только часть контента. Чтобы увидеть весь контент сайта, пожалуйста, зарегистрироруйтесь.

Дешевый и быстрый Сидбокс

Ключи и пин-коды

Игры, Кредитные карты, IP-телефония, Интернет провайдеры, Мобильная связь, Спутниковое ТВ

Электронные книги

Бизнес и экономика, Дом, быт, семья, досуг, Санкт-Петербург, Компьютеры и интернет, Наука и образование, Техническая литература, Юридическая литература

Цифровые товары

iTunes & App Store, Базы данных, Дизайн, Доступ к ресурсам, Kарты продления, ключи, Фотографии, Шаблоны для сайтов

Программное обеспечение

Безопасность, Игры, PC, Интернет, Мобильная связь, Программирование, Продвижение сайтов (SEO), Утилиты
У Вас отключен VIP статус, поэтому Вам показывается реклама на сайте. Вы можете поддержать наш ресурс и приобрести VIP статус, тем самым отключив показ рекламы на сайте, а ещё VIP пользователи получают возможность

смотреть аниме онлайн в HD качестве

(не распространяется на раздел Flarrow Films), а так же получить 5 инвайтов, которыми можно поделиться с друзьями или знакомыми.
Дешевый и быстрый Сидбокс

Ключи и пин-коды

Игры, Кредитные карты, IP-телефония, Интернет провайдеры, Мобильная связь, Спутниковое ТВ

Электронные книги

Бизнес и экономика, Дом, быт, семья, досуг, Санкт-Петербург, Компьютеры и интернет, Наука и образование, Техническая литература, Юридическая литература

Цифровые товары

iTunes & App Store, Базы данных, Дизайн, Доступ к ресурсам, Kарты продления, ключи, Фотографии, Шаблоны для сайтов

Программное обеспечение

Безопасность, Игры, PC, Интернет, Мобильная связь, Программирование, Продвижение сайтов (SEO), Утилиты


Последний раз редактировалось: VLDeshka (2021-10-14 15:15), всего редактировалось 1 раз
[Профиль] [ЛС]

VLDeshka ®

Оффлайн

Медали


Пол: Не указан

Стаж: 1 год

Наличие запрета:

Сообщений: 53

Отдача: 2 Mb/s

Загрузка: 20 Mb/s

Нажми


Скачать Adguard бесплатно

Создавать темы 14-Окт-2021 14:49 (спустя 3 дня)

[Цитировать]

Добавлена 2-я серия
[Профиль] [ЛС]
Показать сообщения:    
Ответить на тему

Текущее время: 24-Окт 18:40

Часовой пояс: UTC + 4



Вы не можете начинать темы
Вы не можете отвечать на сообщения
Вы не можете редактировать свои сообщения
Вы не можете удалять свои сообщения
Вы не можете голосовать в опросах
Вы не можете прикреплять файлы к сообщениям
Вы можете скачивать файлы
Анализ сайта korsars.pro Яндекс.Метрика