Воины Пограничья / Kyoukai Senki [01x01-03 из 24] (2021) WEBRip 1080p от Fortuna.TV | Force Media

Ответить на тему
Статистика раздачи [Обновить пиров]
Размер:  2,2 GB   |    Зарегистрирован:  4 дня   |    .torrent скачан:  15 раз
Раздают:  68  [  0 KB/s  ]   Качают:  8  [  0 KB/s  ]   Подробная статистика пиров
 
   
 
 
Автор Сообщение

loe3df ®

Оффлайн

Медали
VIPАктивный раздающий 1Активный раздающий 2Активный релизер Аниме (100)
Активный релизер Аниме (50)Орденосец 1 степени


Пол: Не указан

Стаж: 1 год 9 месяцев

Наличие запрета:

Сообщений: 360

Откуда: Die Welt von Hentai

Отдача: не определено

Загрузка: не определено

Нажми


Скачать Adguard бесплатно

Создавать темы 10-Окт-2021 14:55

[Цитировать]

Воины Пограничья / Kyoukai Senki- Год выпуска: 2021
Страна: Япония
Жанр: Приключения, фантастика, меха, экшен
Продолжительность: ~ 00:24:00
Перевод: Профессиональный (многоголосый, закадровый) | Force Media [Wakanim]
Режиссёр: Нобуёси Хабара
Возрастное ограничение: 12+-Рейтинг:
-Описание:
Действие происходит в 2061 году. Япония оккупирована несколькими государствами. Мир был объединен под властью четырех торговых блоков. Теперь весь японский архипелаг — это линия фронта. Японцы живут в условиях постоянного угнетения, а улицы страны патрулируют гуманоидные боевые машины, называемые AMAIM. Молодой парень Амо Сиба встречает автономного ИИ по имени Гай и получает возможность пилотировать AMAIM Кенбу. Так начинается история, в которой парень пытается освободить Японию.-Качество: WEBRip 1080p
Формат: MKV (MPEG-4 AVC)
Видео: 1920x1080, ~ 4 100 kb/s, 23.976 FPS. 8 bits
Аудио RUS: AAC LC, ~ 128 kb/s, 2 channels, 48.0 kHz
Аудио JAP: AAC LC, ~ 128 kb/s, 2 channels, 48.0 kHz
Субтитры: Русские полные (отключаемые)-

Скриншоты

MediaInfo

General
Unique ID : 282975262496874760121981424232717754780 (0xD4E30D9BA7AEA9E3A4F38037805E219C)
Complete name : [FT] Kyoukai Senki - 01.mkv
Format : Matroska
Format version : Version 4
File size : 753 MiB
Duration : 24 min 9 s
Overall bit rate : 4 357 kb/s
Encoded date : UTC 2021-10-04 19:20:59
Writing application : mkvmerge v39.0.0 ('In The Waiting Line') 64-bit
Writing library : libebml v1.3.9 + libmatroska v1.5.2
Attachments : verdanab.ttf / verdanaz.ttf
Video
ID : 1
Format : AVC
Format/Info : Advanced Video Codec
Format profile : High@L4
Format settings : CABAC / 4 Ref Frames
Format settings, CABAC : Yes
Format settings, Reference frames : 4 frames
Codec ID : V_MPEG4/ISO/AVC
Duration : 24 min 9 s
Bit rate : 4 100 kb/s
Width : 1 920 pixels
Height : 1 080 pixels
Display aspect ratio : 16:9
Frame rate mode : Constant
Frame rate : 23.976 (24000/1001) FPS
Color space : YUV
Chroma subsampling : 4:2:0
Bit depth : 8 bits
Scan type : Progressive
Bits/(Pixel*Frame) : 0.082
Stream size : 708 MiB (94%)
Writing library : x264 core 155
Encoding settings : cabac=1 / ref=3 / deblock=1:0:0 / analyse=0x3:0x113 / me=hex / subme=6 / psy=1 / psy_rd=1.00:0.00 / mixed_ref=0 / me_range=16 / chroma_me=1 / trellis=1 / 8x8dct=1 / cqm=0 / deadzone=21,11 / fast_pskip=1 / chroma_qp_offset=-2 / threads=24 / lookahead_threads=4 / sliced_threads=0 / nr=0 / decimate=1 / interlaced=0 / bluray_compat=0 / constrained_intra=0 / bframes=3 / b_pyramid=2 / b_adapt=1 / b_bias=0 / direct=1 / weightb=1 / open_gop=0 / weightp=2 / keyint=250 / keyint_min=23 / scenecut=0 / intra_refresh=0 / rc_lookahead=40 / rc=abr / mbtree=1 / bitrate=4100 / ratetol=1.0 / qcomp=0.60 / qpmin=0 / qpmax=69 / qpstep=4 / vbv_maxrate=4700 / vbv_bufsize=23500 / nal_hrd=none / filler=0 / ip_ratio=1.40 / aq=1:1.00
Default : Yes
Forced : No
Audio #1
ID : 2
Format : AAC LC
Format/Info : Advanced Audio Codec Low Complexity
Codec ID : A_AAC-2
Duration : 24 min 9 s
Bit rate : 128 kb/s
Channel(s) : 2 channels
Channel layout : L R
Sampling rate : 48.0 kHz
Frame rate : 46.875 FPS (1024 SPF)
Compression mode : Lossy
Delay relative to video : 63 ms
Stream size : 22.1 MiB (3%)
Title : Force Media
Language : Russian
Default : Yes
Forced : No
Audio #2
ID : 3
Format : AAC LC
Format/Info : Advanced Audio Codec Low Complexity
Codec ID : A_AAC-2
Duration : 24 min 9 s
Bit rate : 128 kb/s
Channel(s) : 2 channels
Channel layout : L R
Sampling rate : 48.0 kHz
Frame rate : 46.875 FPS (1024 SPF)
Compression mode : Lossy
Stream size : 22.1 MiB (3%)
Language : Japanese
Default : No
Forced : No
Text
ID : 4
Format : ASS
Codec ID : S_TEXT/ASS
Codec ID/Info : Advanced Sub Station Alpha
Duration : 24 min 6 s
Bit rate : 166 b/s
Count of elements : 423
Compression mode : Lossless
Stream size : 29.5 KiB (0%)
Language : Russian
Default : No
Forced : No
Релиз от: Fortuna.TV-19.10.2021 обновлено. Добавлена 3-я серия. Приятного просмотра.

Релиз подготовлен Fortuna.TV

[korsars.pro].t47158.torrent 
Торрент: Зарегистрирован [ 2021-10-19 21:40 ] · AFADDBE5A15FB3E889D5011D20584C0D63A38495

Скачать .torrent

Размер .torrent файла 12 KB

Статус: проверено
.torrent скачан: 15 раз
Размер: 2,2 GB
Правила
Похожие темы

Вы не зарегистрированы на нашем сайте. Вам доступна для скачивания только часть контента. Чтобы увидеть весь контент сайта, пожалуйста, зарегистрироруйтесь.

Дешевый и быстрый Сидбокс

Ключи и пин-коды

Игры, Кредитные карты, IP-телефония, Интернет провайдеры, Мобильная связь, Спутниковое ТВ

Электронные книги

Бизнес и экономика, Дом, быт, семья, досуг, Санкт-Петербург, Компьютеры и интернет, Наука и образование, Техническая литература, Юридическая литература

Цифровые товары

iTunes & App Store, Базы данных, Дизайн, Доступ к ресурсам, Kарты продления, ключи, Фотографии, Шаблоны для сайтов

Программное обеспечение

Безопасность, Игры, PC, Интернет, Мобильная связь, Программирование, Продвижение сайтов (SEO), Утилиты
У Вас отключен VIP статус, поэтому Вам показывается реклама на сайте. Вы можете поддержать наш ресурс и приобрести VIP статус, тем самым отключив показ рекламы на сайте, а ещё VIP пользователи получают возможность

смотреть аниме онлайн в HD качестве

(не распространяется на раздел Flarrow Films), а так же получить 5 инвайтов, которыми можно поделиться с друзьями или знакомыми.
Дешевый и быстрый Сидбокс

Ключи и пин-коды

Игры, Кредитные карты, IP-телефония, Интернет провайдеры, Мобильная связь, Спутниковое ТВ

Электронные книги

Бизнес и экономика, Дом, быт, семья, досуг, Санкт-Петербург, Компьютеры и интернет, Наука и образование, Техническая литература, Юридическая литература

Цифровые товары

iTunes & App Store, Базы данных, Дизайн, Доступ к ресурсам, Kарты продления, ключи, Фотографии, Шаблоны для сайтов

Программное обеспечение

Безопасность, Игры, PC, Интернет, Мобильная связь, Программирование, Продвижение сайтов (SEO), Утилиты


Последний раз редактировалось: loe3df (2021-10-19 21:40), всего редактировалось 1 раз
[Профиль] [ЛС]

loe3df ®

Оффлайн

Медали
VIPАктивный раздающий 1Активный раздающий 2Активный релизер Аниме (100)
Активный релизер Аниме (50)Орденосец 1 степени


Пол: Не указан

Стаж: 1 год 9 месяцев

Наличие запрета:

Сообщений: 360

Откуда: Die Welt von Hentai

Отдача: не определено

Загрузка: не определено

Нажми


Скачать Adguard бесплатно

Создавать темы 12-Окт-2021 01:03 (спустя 1 день 10 часов)

[Цитировать]

12.10.2021 обновлено. Добавлена 2-я серия. Приятного просмотра.
[Профиль] [ЛС]

loe3df ®

Оффлайн

Медали
VIPАктивный раздающий 1Активный раздающий 2Активный релизер Аниме (100)
Активный релизер Аниме (50)Орденосец 1 степени


Пол: Не указан

Стаж: 1 год 9 месяцев

Наличие запрета:

Сообщений: 360

Откуда: Die Welt von Hentai

Отдача: не определено

Загрузка: не определено

Нажми


Скачать Adguard бесплатно

Создавать темы 19-Окт-2021 21:40 (спустя 7 дней)

[Цитировать]

19.10.2021 обновлено. Добавлена 3-я серия. Приятного просмотра.
[Профиль] [ЛС]
Показать сообщения:    
Ответить на тему

Текущее время: 24-Окт 19:15

Часовой пояс: UTC + 4



Вы не можете начинать темы
Вы не можете отвечать на сообщения
Вы не можете редактировать свои сообщения
Вы не можете удалять свои сообщения
Вы не можете голосовать в опросах
Вы не можете прикреплять файлы к сообщениям
Вы можете скачивать файлы
Анализ сайта korsars.pro Яндекс.Метрика