Фена: Принцесса пиратов / Kaizoku Oujo / Fena: Pirate Princess [01x01-11 из 12] (2021) WEBRip 1080p от KORSARS | SovetRomantica

Ответить на тему
Статистика раздачи [Обновить пиров]
Размер:  14,9 GB   |    Зарегистрирован:  1 день 3 часа   |    .torrent скачан:  6 раз
Раздают:  93  [  590 KB/s  ]   Качают:  8  [  965 KB/s  ]   Подробная статистика пиров
 
   
 
 
Автор Сообщение

4udaki ®

Онлайн

Медали


Пол: Мужской

Стаж: 6 лет 11 месяцев

Наличие запрета:

Сообщений: 11567

Откуда: korsars.pro

Отдача: 2 Mb/s

Загрузка: 20 Mb/s

Нажми


Скачать Adguard бесплатно

Создавать темы 10-Окт-2021 11:07

[Цитировать]

Фена: Принцесса пиратов / Kaizoku Oujo / Fena: Pirate Princess-Год выпуска: 2021
Страна:
Япония
Жанр: экшен, приключения
Продолжительность: ~ 00:24:10 (серия)
Перевод: Любительский многоголосый (закадровый) | SovetRomantica
Режиссёр: Cаки Фудзи
Возрастное ограничение: PG-13/14+-Рейтинг:
-Релиз от: -Описание:
Обладательница редчайшей красоты Фена уже который год пленница на небольшом острове Шангри-Ла, куда несколько лет назад попала ещё ребёнком. С тех пор удерживаемая местными властями Белая Диковинка — так местные прозвали девушку за белоснежную кожу и волосы — мечтала вырваться из алчных лап своих «попечителей», не так давно задумавших выдать её замуж за богатенького бонвивана.
И вот день настал: букет в руках, фата — словно забрало, а будущий муженёк уже выпрыгивает из штанов. Ситуация пренеприятнейшая. Кажется, деваться некуда. Но судьба благосклонна и вносит в жизнь Фены некоторые приятные коррективы — давние знакомые уже спешат на помощь и в конце концов похищают девушку, оставив её пленителей в дураках.
За следующую пару дней на Фену обрушивается целый поток новой информации: о том, кто она такая, о её семье и предназначении, диктующем ей отправиться в непростое путешествие. Благо девушка наделена не только писаной красотой, но и храбростью. Приняв этот вызов, она отрекается от тотема своей прошлой жизни — роскошных волос — и ступает на путь приключений в окружении верных товарищей.
© Shikimori-Качество: WEBRip 1080p
Формат: MKV (MPEG-4 AVC)
Видео: 1920x1080, ~8 000 kb/s, 23.976 FPS, 8 bits | без заставки и логотипа SovetRomantica
Аудио RUS: AAC LC, ~ 126 kb/s, 2 channels, 48.0 kHz
Субтитры: русские, на надписи (хардсаб) | Crunchyroll-

MediaInfo

General
Unique ID                   : 127529335395609659823698040535476165561 (0x5FF141AF660CE99048055D801D3D5BB9)
Complete name               : [KORSARS]_Fena.Pirate.Princess.[S01E01].WEBRip.1080p_[SovetRomantica].mkv
Format                      : Matroska
Format version              : Version 4
File size                   : 1.30 GiB
Duration                    : 24 min 10 s
Overall bit rate            : 7 696 kb/s
Movie name                  : [KORSARS]_Fena.Pirate.Princess.[S01E01].WEBRip.1080p_[SovetRomantica]
Encoded date                : UTC 2021-10-09 13:17:55
Writing application         : mkvmerge v61.0.0 ('So') 64-bit
Writing library             : libebml v1.4.2 + libmatroska v1.6.4
Video
ID                          : 1
Format                      : AVC
Format/Info                 : Advanced Video Codec
Format profile              : Main@L4
Format settings             : CABAC / 4 Ref Frames
Format settings, CABAC      : Yes
Format settings, Reference  : 4 frames
Codec ID                    : V_MPEG4/ISO/AVC
Duration                    : 24 min 10 s
Bit rate                    : 7 567 kb/s
Nominal bit rate            : 8 000 kb/s
Width                       : 1 920 pixels
Height                      : 1 080 pixels
Display aspect ratio        : 16:9
Frame rate mode             : Constant
Frame rate                  : 23.976 (24000/1001) FPS
Color space                 : YUV
Chroma subsampling          : 4:2:0
Bit depth                   : 8 bits
Scan type                   : Progressive
Bits/(Pixel*Frame)          : 0.152
Stream size                 : 1.28 GiB (98%)
Title                       : [KORSARS]_Fena.Pirate.Princess.[S01E01].WEBRip.1080p_[SovetRomantica]
Writing library             : x264 core 157 r2935 545de2f
Encoding settings           : cabac=1 / ref=3 / deblock=1:0:0 / analyse=0x1:0x111 / me=hex / subme=7 / psy=1 / psy_rd=1.00:0.00 / mixed_ref=1 / me_range=16 / chroma_me=1 / trellis=1 / 8x8dct=0 / cqm=0 / deadzone=21,11 / fast_pskip=1 / chroma_qp_offset=-2 / threads=9 / lookahead_threads=1 / sliced_threads=0 / nr=0 / decimate=1 / interlaced=0 / bluray_compat=0 / constrained_intra=0 / bframes=3 / b_pyramid=2 / b_adapt=1 / b_bias=0 / direct=1 / weightb=1 / open_gop=0 / weightp=2 / keyint=240 / keyint_min=24 / scenecut=40 / intra_refresh=0 / rc_lookahead=40 / rc=abr / mbtree=1 / bitrate=8000 / ratetol=1.0 / qcomp=0.60 / qpmin=0 / qpmax=69 / qpstep=4 / vbv_maxrate=20000 / vbv_bufsize=25000 / nal_hrd=none / filler=0 / ip_ratio=1.40 / aq=1:1.00
Default                     : Yes
Forced                      : No
Color range                 : Limited
Color primaries             : BT.709
Transfer characteristics    : BT.709
Matrix coefficients         : BT.709
Audio
ID                          : 2
Format                      : AAC LC
Format/Info                 : Advanced Audio Codec Low Complexity
Codec ID                    : A_AAC-2
Duration                    : 24 min 10 s
Bit rate                    : 126 kb/s
Channel(s)                  : 2 channels
Channel layout              : L R
Sampling rate               : 48.0 kHz
Frame rate                  : 46.875 FPS (1024 SPF)
Compression mode            : Lossy
Delay relative to video     : -21 ms
Stream size                 : 21.8 MiB (2%)
Title                       : [KORSARS]_Fena.Pirate.Princess.[S01E01].WEBRip.1080p_[SovetRomantica]
Language                    : Russian
Default                     : Yes
Forced                      : No
--23.10.2021 обновлено. Добавлена 11 серия. Приятного просмотра-Донат релизеру ^__^-
[korsars.pro].t47147.torrent 
Торрент: Зарегистрирован [ Вчера, в 15:01 ] · 3C873071DA25B5A9EFCEBA6825CC70318B7AE32C

Скачать .torrent

Размер .torrent файла 39 KB

Статус: проверено
.torrent скачан: 6 раз
Размер: 14,9 GB
Правила
Похожие темы

Вы не зарегистрированы на нашем сайте. Вам доступна для скачивания только часть контента. Чтобы увидеть весь контент сайта, пожалуйста, зарегистрироруйтесь.

Дешевый и быстрый Сидбокс

Ключи и пин-коды

Игры, Кредитные карты, IP-телефония, Интернет провайдеры, Мобильная связь, Спутниковое ТВ

Электронные книги

Бизнес и экономика, Дом, быт, семья, досуг, Санкт-Петербург, Компьютеры и интернет, Наука и образование, Техническая литература, Юридическая литература

Цифровые товары

iTunes & App Store, Базы данных, Дизайн, Доступ к ресурсам, Kарты продления, ключи, Фотографии, Шаблоны для сайтов

Программное обеспечение

Безопасность, Игры, PC, Интернет, Мобильная связь, Программирование, Продвижение сайтов (SEO), Утилиты
У Вас отключен VIP статус, поэтому Вам показывается реклама на сайте. Вы можете поддержать наш ресурс и приобрести VIP статус, тем самым отключив показ рекламы на сайте, а ещё VIP пользователи получают возможность

смотреть аниме онлайн в HD качестве

(не распространяется на раздел Flarrow Films), а так же получить 5 инвайтов, которыми можно поделиться с друзьями или знакомыми.
Дешевый и быстрый Сидбокс

Ключи и пин-коды

Игры, Кредитные карты, IP-телефония, Интернет провайдеры, Мобильная связь, Спутниковое ТВ

Электронные книги

Бизнес и экономика, Дом, быт, семья, досуг, Санкт-Петербург, Компьютеры и интернет, Наука и образование, Техническая литература, Юридическая литература

Цифровые товары

iTunes & App Store, Базы данных, Дизайн, Доступ к ресурсам, Kарты продления, ключи, Фотографии, Шаблоны для сайтов

Программное обеспечение

Безопасность, Игры, PC, Интернет, Мобильная связь, Программирование, Продвижение сайтов (SEO), Утилиты


Последний раз редактировалось: 4udaki (Вчера, в 15:01), всего редактировалось 1 раз
[Профиль] [ЛС]

4udaki ®

Онлайн

Медали


Пол: Мужской

Стаж: 6 лет 11 месяцев

Наличие запрета:

Сообщений: 11567

Откуда: korsars.pro

Отдача: 2 Mb/s

Загрузка: 20 Mb/s

Нажми


Скачать Adguard бесплатно

Создавать темы 15-Окт-2021 20:40 (спустя 5 дней)

[Цитировать]

15.10.2021 обновлено. Добавлена 10 серия. Приятного просмотра
[Профиль] [ЛС]

4udaki ®

Онлайн

Медали


Пол: Мужской

Стаж: 6 лет 11 месяцев

Наличие запрета:

Сообщений: 11567

Откуда: korsars.pro

Отдача: 2 Mb/s

Загрузка: 20 Mb/s

Нажми


Скачать Adguard бесплатно

Создавать темы Вчера, в 15:01 (спустя 7 дней)

[Цитировать]

23.10.2021 обновлено. Добавлена 11 серия. Приятного просмотра
[Профиль] [ЛС]
Показать сообщения:    
Ответить на тему

Текущее время: 24-Окт 18:54

Часовой пояс: UTC + 4



Вы не можете начинать темы
Вы не можете отвечать на сообщения
Вы не можете редактировать свои сообщения
Вы не можете удалять свои сообщения
Вы не можете голосовать в опросах
Вы не можете прикреплять файлы к сообщениям
Вы можете скачивать файлы
Анализ сайта korsars.pro Яндекс.Метрика