Этот вампир постоянно умирает / Kyuuketsuki Sugu Shinu [01x01-03 из 12] (2021) WEBRip 1080p от Fortuna.TV | Force Media

Ответить на тему
Статистика раздачи [Обновить пиров]
Размер:  2,16 GB   |    Зарегистрирован:  5 дней   |    .torrent скачан:  20 раз
Раздают:  26  [  0 KB/s  ]   Качают:  7  [  0 KB/s  ]   Подробная статистика пиров
 
   
 
 
Автор Сообщение

loe3df ®

Оффлайн

Медали
VIPАктивный раздающий 1Активный раздающий 2Активный релизер Аниме (100)
Активный релизер Аниме (50)Орденосец 1 степени


Пол: Не указан

Стаж: 1 год 9 месяцев

Наличие запрета:

Сообщений: 360

Откуда: Die Welt von Hentai

Отдача: не определено

Загрузка: не определено

Нажми


Скачать Adguard бесплатно

Создавать темы 05-Окт-2021 14:37

[Цитировать]

Этот вампир постоянно умирает / Kyuuketsuki Sugu Shinu- Год выпуска: 2021
Страна: Япония
Жанр: Приключения, комедия, сверхъестественное, сёнэн
Продолжительность: ~ 00:24:00
Перевод: Профессиональный (многоголосый, закадровый) | Force Media
Режиссёр: Хироси Кодзина
Возрастное ограничение: 18+-Рейтинг:
-Описание:
Дралюк – лорд-вампир, который, в соответствии со своим статусом, живёт в жутком особняке. Но на этом, пожалуй, заканчивается его сходство с классическими сородичами. Этот кровосос начисто лишён полезного качества, которым обладают миллионы соискателей на хэдхантере. Речь, конечно, про стрессоустойчивость. Стоит Дралюку хоть немного понервничать, как он тут же обращается в пепел. И ладно бы, если с концами. Но проходит какое-то время, и он снова оживает, словно птица феникс. А чему тут радоваться, когда не жизнь, а сплошная смерть и разочарование? Как назло, нервничать ему приходится много. И любая попытка доказать окружающим, что он настоящий брутал, проводит к ужасному провалу. Так, например, его дом стал излюбленным местом для игр оравы детей, которую Дралюк вероломно похитил (наивный, похитил он). А тут ещё объявился охотник на вампиров по имени Роналду. И так уж получилось, что теперь героям предстоит работать бок о бок, сражаясь с мошенниками, детективами и обстоятельствами.-Качество: WEBRip 1080p
Формат: MKV (MPEG-4 AVC)
Видео: 1920x1080, ~ 4 100 kb/s, 23.976 FPS. 8 bits
Аудио RUS: AAC LC, ~ 128 kb/s, 2 channels, 48.0 kHz
Аудио JAP: AAC LC, ~ 128 kb/s, 2 channels, 48.0 kHz
Субтитры: Русские полные (отключаемые)-

Скриншоты

MediaInfo

General
Unique ID : 196932913804606503274899788897910406697 (0x9427E64A6D6B01D9817A402FD4323E29)
Complete name : [FT] Kyuuketsuki Sugu Shinu - 01.mkv
Format : Matroska
Format version : Version 4
File size : 738 MiB
Duration : 23 min 40 s
Overall bit rate : 4 361 kb/s
Encoded date : UTC 2021-10-04 19:08:56
Writing application : mkvmerge v39.0.0 ('In The Waiting Line') 64-bit
Writing library : libebml v1.3.9 + libmatroska v1.5.2
Attachments : verdanab.ttf / verdanaz.ttf
Video
ID : 1
Format : AVC
Format/Info : Advanced Video Codec
Format profile : High@L4
Format settings : CABAC / 4 Ref Frames
Format settings, CABAC : Yes
Format settings, Reference frames : 4 frames
Codec ID : V_MPEG4/ISO/AVC
Duration : 23 min 40 s
Bit rate : 4 100 kb/s
Width : 1 920 pixels
Height : 1 080 pixels
Display aspect ratio : 16:9
Frame rate mode : Constant
Frame rate : 23.976 (24000/1001) FPS
Color space : YUV
Chroma subsampling : 4:2:0
Bit depth : 8 bits
Scan type : Progressive
Bits/(Pixel*Frame) : 0.082
Stream size : 694 MiB (94%)
Writing library : x264 core 155
Encoding settings : cabac=1 / ref=3 / deblock=1:0:0 / analyse=0x3:0x113 / me=hex / subme=6 / psy=1 / psy_rd=1.00:0.00 / mixed_ref=0 / me_range=16 / chroma_me=1 / trellis=1 / 8x8dct=1 / cqm=0 / deadzone=21,11 / fast_pskip=1 / chroma_qp_offset=-2 / threads=24 / lookahead_threads=4 / sliced_threads=0 / nr=0 / decimate=1 / interlaced=0 / bluray_compat=0 / constrained_intra=0 / bframes=3 / b_pyramid=2 / b_adapt=1 / b_bias=0 / direct=1 / weightb=1 / open_gop=0 / weightp=2 / keyint=250 / keyint_min=23 / scenecut=0 / intra_refresh=0 / rc_lookahead=40 / rc=abr / mbtree=1 / bitrate=4100 / ratetol=1.0 / qcomp=0.60 / qpmin=0 / qpmax=69 / qpstep=4 / vbv_maxrate=4700 / vbv_bufsize=23500 / nal_hrd=none / filler=0 / ip_ratio=1.40 / aq=1:1.00
Default : Yes
Forced : No
Audio #1
ID : 2
Format : AAC LC
Format/Info : Advanced Audio Codec Low Complexity
Codec ID : A_AAC-2
Duration : 23 min 39 s
Bit rate : 128 kb/s
Channel(s) : 2 channels
Channel layout : L R
Sampling rate : 48.0 kHz
Frame rate : 46.875 FPS (1024 SPF)
Compression mode : Lossy
Delay relative to video : 63 ms
Stream size : 21.7 MiB (3%)
Language : Russian
Default : Yes
Forced : No
Audio #2
ID : 3
Format : AAC LC
Format/Info : Advanced Audio Codec Low Complexity
Codec ID : A_AAC-2
Duration : 23 min 40 s
Bit rate : 128 kb/s
Channel(s) : 2 channels
Channel layout : L R
Sampling rate : 48.0 kHz
Frame rate : 46.875 FPS (1024 SPF)
Compression mode : Lossy
Stream size : 21.7 MiB (3%)
Language : Japanese
Default : No
Forced : No
Text
ID : 4
Format : ASS
Codec ID : S_TEXT/ASS
Codec ID/Info : Advanced Sub Station Alpha
Duration : 22 min 20 s
Bit rate : 215 b/s
Count of elements : 467
Compression mode : Lossless
Stream size : 35.3 KiB (0%)
Title : Russian
Language : Russian
Default : No
Forced : No
Релиз от: Fortuna.TV-18.10.2021 обновлено. Добавлена 3-я серия. Приятного просмотра.

Релиз подготовлен Fortuna.TV

[korsars.pro].t46911.torrent 
Торрент: Зарегистрирован [ 2021-10-18 22:07 ] · 5A4A777B92CB306103BB8B9A7184CA2C17650290

Скачать .torrent

Размер .torrent файла 12 KB

Статус: проверено
.torrent скачан: 20 раз
Размер: 2,16 GB
Правила
ellolait(05-Окт-21), 4udaki(05-Окт-21)
Похожие темы

Вы не зарегистрированы на нашем сайте. Вам доступна для скачивания только часть контента. Чтобы увидеть весь контент сайта, пожалуйста, зарегистрироруйтесь.

Дешевый и быстрый Сидбокс

Ключи и пин-коды

Игры, Кредитные карты, IP-телефония, Интернет провайдеры, Мобильная связь, Спутниковое ТВ

Электронные книги

Бизнес и экономика, Дом, быт, семья, досуг, Санкт-Петербург, Компьютеры и интернет, Наука и образование, Техническая литература, Юридическая литература

Цифровые товары

iTunes & App Store, Базы данных, Дизайн, Доступ к ресурсам, Kарты продления, ключи, Фотографии, Шаблоны для сайтов

Программное обеспечение

Безопасность, Игры, PC, Интернет, Мобильная связь, Программирование, Продвижение сайтов (SEO), Утилиты
У Вас отключен VIP статус, поэтому Вам показывается реклама на сайте. Вы можете поддержать наш ресурс и приобрести VIP статус, тем самым отключив показ рекламы на сайте, а ещё VIP пользователи получают возможность

смотреть аниме онлайн в HD качестве

(не распространяется на раздел Flarrow Films), а так же получить 5 инвайтов, которыми можно поделиться с друзьями или знакомыми.
Дешевый и быстрый Сидбокс

Ключи и пин-коды

Игры, Кредитные карты, IP-телефония, Интернет провайдеры, Мобильная связь, Спутниковое ТВ

Электронные книги

Бизнес и экономика, Дом, быт, семья, досуг, Санкт-Петербург, Компьютеры и интернет, Наука и образование, Техническая литература, Юридическая литература

Цифровые товары

iTunes & App Store, Базы данных, Дизайн, Доступ к ресурсам, Kарты продления, ключи, Фотографии, Шаблоны для сайтов

Программное обеспечение

Безопасность, Игры, PC, Интернет, Мобильная связь, Программирование, Продвижение сайтов (SEO), Утилиты


Последний раз редактировалось: loe3df (2021-10-18 22:07), всего редактировалось 1 раз
[Профиль] [ЛС]

loe3df ®

Оффлайн

Медали
VIPАктивный раздающий 1Активный раздающий 2Активный релизер Аниме (100)
Активный релизер Аниме (50)Орденосец 1 степени


Пол: Не указан

Стаж: 1 год 9 месяцев

Наличие запрета:

Сообщений: 360

Откуда: Die Welt von Hentai

Отдача: не определено

Загрузка: не определено

Нажми


Скачать Adguard бесплатно

Создавать темы 12-Окт-2021 01:01 (спустя 6 дней)

[Цитировать]

12.10.2021 обновлено. Добавлена 2-я серия. Приятного просмотра.
[Профиль] [ЛС]

loe3df ®

Оффлайн

Медали
VIPАктивный раздающий 1Активный раздающий 2Активный релизер Аниме (100)
Активный релизер Аниме (50)Орденосец 1 степени


Пол: Не указан

Стаж: 1 год 9 месяцев

Наличие запрета:

Сообщений: 360

Откуда: Die Welt von Hentai

Отдача: не определено

Загрузка: не определено

Нажми


Скачать Adguard бесплатно

Создавать темы 18-Окт-2021 22:07 (спустя 6 дней)

[Цитировать]

18.10.2021 обновлено. Добавлена 3-я серия. Приятного просмотра.
[Профиль] [ЛС]
Показать сообщения:    
Ответить на тему

Текущее время: 24-Окт 20:18

Часовой пояс: UTC + 4



Вы не можете начинать темы
Вы не можете отвечать на сообщения
Вы не можете редактировать свои сообщения
Вы не можете удалять свои сообщения
Вы не можете голосовать в опросах
Вы не можете прикреплять файлы к сообщениям
Вы можете скачивать файлы
Анализ сайта korsars.pro Яндекс.Метрика