Девочка, которая видит это / Mieruko-chan [01x01-03 из 12] (2021) WEBRip 1080p от Fortuna.TV | Force Media

Ответить на тему
Статистика раздачи [Обновить пиров]
Размер:  2,71 GB   |    Зарегистрирован:  6 дней   |    .torrent скачан:  27 раз
Раздают:  109  [  7 KB/s  ]   Качают:  5  [  0 KB/s  ]   Подробная статистика пиров
 
   
 
 
Автор Сообщение

loe3df ®

Оффлайн

Медали
VIPАктивный раздающий 1Активный раздающий 2Активный релизер Аниме (100)
Активный релизер Аниме (50)Орденосец 1 степени


Пол: Не указан

Стаж: 1 год 9 месяцев

Наличие запрета:

Сообщений: 360

Откуда: Die Welt von Hentai

Отдача: не определено

Загрузка: не определено

Нажми


Скачать Adguard бесплатно

Создавать темы 03-Окт-2021 21:55

[Цитировать]

Девочка, которая видит это / Mieruko-chan- Год выпуска: 2021
Страна: Япония
Жанр: Триллер, мистика, ужасы, сэйнэн, сверхъестественное
Продолжительность: ~ 00:24:00
Перевод: Профессиональный (многоголосый, закадровый) | Force Media
Режиссёр: Юки Огава
Возрастное ограничение: 18+-Рейтинг:
-Описание:
Повседневная жизнь старшеклассницы Мико кардинально меняется, когда она пробуждает в себе шестое чувство и начинает видеть души мёртвых и призраков. Она не может перестать видеть ужасных, отвратительных монстров и не знает причину проявления этих способностей. Несмотря на то, что Мико сильно испугана, она продолжает свою будничную жизнь как ни в чём не бывало и делает вид, что не замечает кошмара, который её окружает. Не сойти с ума девушке помогает её лучшая подруга Хана. С этого момента Мико предстоит пройти через множество трудностей и узнать подробности загадочных явлений, происходящих с ней.-Качество: WEBRip 1080p
Формат: MKV (MPEG-4 AVC)
Видео: 1920x1080, ~ 4 100 kb/s, 23.976 FPS. 8 bits
Аудио RUS: AAC LC, ~ 128 kb/s, 2 channels, 48.0 kHz
Аудио JAP: AAC LC, ~ 128 kb/s, 2 channels, 48.0 kHz
Субтитры: Русские полные (отключаемые) | Истари Комикс-

Скриншоты

MediaInfo

General
Unique ID : 297447141288489123321889290346617147650 (0xDFC63C521DA7670C1E593AAB70909102)
Complete name : [FT] Mieruko-chan - 01.mkv
Format : Matroska
Format version : Version 4
File size : 1.01 GiB
Duration : 23 min 39 s
Overall bit rate : 6 114 kb/s
Encoded date : UTC 2021-10-03 15:16:02
Writing application : mkvmerge v39.0.0 ('In The Waiting Line') 64-bit
Writing library : libebml v1.3.9 + libmatroska v1.5.2
Video
ID : 1
Format : AVC
Format/Info : Advanced Video Codec
Format profile : High@L4
Format settings : CABAC / 3 Ref Frames
Format settings, CABAC : Yes
Format settings, Reference frames : 3 frames
Codec ID : V_MPEG4/ISO/AVC
Duration : 23 min 39 s
Bit rate : 5 728 kb/s
Width : 1 920 pixels
Height : 1 080 pixels
Display aspect ratio : 16:9
Frame rate mode : Constant
Frame rate : 23.976 (24000/1001) FPS
Color space : YUV
Chroma subsampling : 4:2:0
Bit depth : 8 bits
Scan type : Progressive
Bits/(Pixel*Frame) : 0.115
Stream size : 969 MiB (94%)
Default : Yes
Forced : No
Color range : Limited
Matrix coefficients : BT.709
Audio #1
ID : 2
Format : AAC LC
Format/Info : Advanced Audio Codec Low Complexity
Codec ID : A_AAC-2
Duration : 23 min 39 s
Bit rate : 128 kb/s
Channel(s) : 2 channels
Channel layout : L R
Sampling rate : 48.0 kHz
Frame rate : 46.875 FPS (1024 SPF)
Compression mode : Lossy
Delay relative to video : 63 ms
Stream size : 21.7 MiB (2%)
Title : Force Media
Language : Russian
Default : Yes
Forced : No
Audio #2
ID : 3
Format : AAC LC
Format/Info : Advanced Audio Codec Low Complexity
Codec ID : A_AAC-2
Duration : 23 min 39 s
Bit rate : 256 kb/s
Channel(s) : 2 channels
Channel layout : L R
Sampling rate : 48.0 kHz
Frame rate : 46.875 FPS (1024 SPF)
Compression mode : Lossy
Delay relative to video : 5 ms
Stream size : 43.3 MiB (4%)
Language : Japanese
Default : No
Forced : No
Text
ID : 4
Format : ASS
Codec ID : S_TEXT/ASS
Codec ID/Info : Advanced Sub Station Alpha
Duration : 22 min 45 s
Bit rate : 91 b/s
Count of elements : 253
Compression mode : Lossless
Stream size : 15.2 KiB (0%)
Language : Russian
Default : No
Forced : No
Релиз от: Fortuna.TV-17.10.2021 обновлено. Добавлена 3-я серия. Приятного просмотра.

Релиз подготовлен Fortuna.TV

[korsars.pro].t46828.torrent 
Торрент: Зарегистрирован [ 2021-10-17 20:49 ] · EFC1F042971D47EAA91B0B79D058B389F0B73FBC

Скачать .torrent

Размер .torrent файла 14 KB

Статус: проверено
.torrent скачан: 27 раз
Размер: 2,71 GB
Правила
4udaki(03-Окт-21), ellolait(03-Окт-21), Akabur97(18-Окт-21)
Похожие темы

Вы не зарегистрированы на нашем сайте. Вам доступна для скачивания только часть контента. Чтобы увидеть весь контент сайта, пожалуйста, зарегистрироруйтесь.

Дешевый и быстрый Сидбокс

Ключи и пин-коды

Игры, Кредитные карты, IP-телефония, Интернет провайдеры, Мобильная связь, Спутниковое ТВ

Электронные книги

Бизнес и экономика, Дом, быт, семья, досуг, Санкт-Петербург, Компьютеры и интернет, Наука и образование, Техническая литература, Юридическая литература

Цифровые товары

iTunes & App Store, Базы данных, Дизайн, Доступ к ресурсам, Kарты продления, ключи, Фотографии, Шаблоны для сайтов

Программное обеспечение

Безопасность, Игры, PC, Интернет, Мобильная связь, Программирование, Продвижение сайтов (SEO), Утилиты
У Вас отключен VIP статус, поэтому Вам показывается реклама на сайте. Вы можете поддержать наш ресурс и приобрести VIP статус, тем самым отключив показ рекламы на сайте, а ещё VIP пользователи получают возможность

смотреть аниме онлайн в HD качестве

(не распространяется на раздел Flarrow Films), а так же получить 5 инвайтов, которыми можно поделиться с друзьями или знакомыми.
Дешевый и быстрый Сидбокс

Ключи и пин-коды

Игры, Кредитные карты, IP-телефония, Интернет провайдеры, Мобильная связь, Спутниковое ТВ

Электронные книги

Бизнес и экономика, Дом, быт, семья, досуг, Санкт-Петербург, Компьютеры и интернет, Наука и образование, Техническая литература, Юридическая литература

Цифровые товары

iTunes & App Store, Базы данных, Дизайн, Доступ к ресурсам, Kарты продления, ключи, Фотографии, Шаблоны для сайтов

Программное обеспечение

Безопасность, Игры, PC, Интернет, Мобильная связь, Программирование, Продвижение сайтов (SEO), Утилиты


Последний раз редактировалось: loe3df (2021-10-17 20:49), всего редактировалось 1 раз
[Профиль] [ЛС]

loe3df ®

Оффлайн

Медали
VIPАктивный раздающий 1Активный раздающий 2Активный релизер Аниме (100)
Активный релизер Аниме (50)Орденосец 1 степени


Пол: Не указан

Стаж: 1 год 9 месяцев

Наличие запрета:

Сообщений: 360

Откуда: Die Welt von Hentai

Отдача: не определено

Загрузка: не определено

Нажми


Скачать Adguard бесплатно

Создавать темы 10-Окт-2021 23:59 (спустя 7 дней)

[Цитировать]

10.10.2021 обновлено. Добавлена 2-я серия. Приятного просмотра.
[Профиль] [ЛС]

loe3df ®

Оффлайн

Медали
VIPАктивный раздающий 1Активный раздающий 2Активный релизер Аниме (100)
Активный релизер Аниме (50)Орденосец 1 степени


Пол: Не указан

Стаж: 1 год 9 месяцев

Наличие запрета:

Сообщений: 360

Откуда: Die Welt von Hentai

Отдача: не определено

Загрузка: не определено

Нажми


Скачать Adguard бесплатно

Создавать темы 17-Окт-2021 20:49 (спустя 6 дней)

[Цитировать]

17.10.2021 обновлено. Добавлена 3-я серия. Приятного просмотра.
[Профиль] [ЛС]

4udaki

Онлайн

Медали


Пол: Мужской

Стаж: 6 лет 11 месяцев

Наличие запрета:

Сообщений: 11567

Откуда: korsars.pro

Отдача: 2 Mb/s

Загрузка: 20 Mb/s

Нажми


Скачать Adguard бесплатно

Создавать темы Вчера, в 14:43 (спустя 5 дней)

[Цитировать]

[Профиль] [ЛС]
Показать сообщения:    
Ответить на тему

Текущее время: 24-Окт 19:44

Часовой пояс: UTC + 4



Вы не можете начинать темы
Вы не можете отвечать на сообщения
Вы не можете редактировать свои сообщения
Вы не можете удалять свои сообщения
Вы не можете голосовать в опросах
Вы не можете прикреплять файлы к сообщениям
Вы можете скачивать файлы
Анализ сайта korsars.pro Яндекс.Метрика