Прямиком из Нигде: Скуби-Ду встречает Куража, трусливого пса / Straight Outta Nowhere: Scooby-Doo! Meets Courage the Cowardly Dog (2021) WEB-DL 1080p | Flarrow Films

Ответить на тему
Статистика раздачи [Обновить пиров]
Размер:  2,7 GB   |    Зарегистрирован:  24 дня   |    .torrent скачан:  5 раз
Раздают:  109  [  0 KB/s  ]   Качают:  9  [  0 KB/s  ]   Подробная статистика пиров
 
   
 
 
Автор Сообщение

flarrowfilms ®

Оффлайн

Медали
VIPДруг трекераСупер Мега Контер Квейк


Пол: Не указан

Стаж: 1 год 6 месяцев

Наличие запрета:

Сообщений: 100

Отдача: 5 Mb/s

Загрузка: 5 Mb/s

Нажми


Скачать Adguard бесплатно

Создавать темы 29-Сен-2021 23:30

[Цитировать]

Информация о фильме
Название: Прямиком из Нигде: Скуби-Ду встречает Куража, трусливого пса
Оригинальное название: Straight Outta Nowhere: Scooby-Doo! Meets Courage the Cowardly Dog
Год выхода: 2021
Жанр: мультфильм, ужасы, фэнтези, комедия, детектив, приключения, семейный
Режиссер: Сесилия Аранович
В ролях: Джефф Бергман, Марти Грабштейн, Грэй Гриффин, Мэттью Лиллард, Кейт Микуччи, Фрэнк Уэлкер, Теа Уайт
О фильме:
Скуби-Ду и команда оказываются в городе Нигде (родной город Куража), в центре Канзаса, где происходит "огромное количество загадочных и жутковатых вещей". Ребята объединяются с Куражом - трусливым псом, чтобы раскрыть тайну гигантских монстров-цикад.

Страна: США
Продолжительность: 01:18:23
Перевод: Профессиональный (многоголосый, закадровый) | Flarrow Films
Роли озвучивали: Ахилл Намазов, Евгений Леонов, Денис Кузьмичёв, Рута Няттиева, Рина Чернышова, Рустам Шайхиев, Татьяна Тарасова, Олег Лялюк и Семён Евсиков
Файл
Формат: MKV
Кодек: MPEG-4 AVC
Качество: WEB-DL 1080p
Видео: 1920х1080, ~ 4 609 kb/s, 23.976, 8 bits
Звук: AC-3, 320 kb/s, 2 channels, 48.0 kHz
Субтитры: русские (отключаемые)-

MediaInfo

General
Unique ID : 194364421155066904304169451294623357870 (0x923939D3713AE488CC7653D624815BAE)
Complete name : C:\Flarrow\Straight.Outta.Nowhere.Scooby.Doo.Meets.Courage.the.Cowardly.Dog.2021.1080p.Flarrow.Films.mkv
Format : Matroska
Format version : Version 4
File size : 2.70 GiB
Duration : 1 h 18 min
Overall bit rate : 4 930 kb/s
Encoded date : UTC 2021-09-29 17:46:31
Writing application : mkvmerge v32.0.0 ('Astral Progressions') 64-bit
Writing library : libebml v1.3.7 + libmatroska v1.5.0
Video
ID : 1
Format : AVC
Format/Info : Advanced Video Codec
Format profile : High@L4
Format settings : CABAC / 4 Ref Frames
Format settings, CABAC : Yes
Format settings, Reference : 4 frames
Codec ID : V_MPEG4/ISO/AVC
Duration : 1 h 18 min
Bit rate : 4 609 kb/s
Width : 1 920 pixels
Height : 1 080 pixels
Display aspect ratio : 16:9
Frame rate mode : Constant
Frame rate : 23.976 (24000/1001) FPS
Color space : YUV
Chroma subsampling : 4:2:0
Bit depth : 8 bits
Scan type : Progressive
Bits/(Pixel*Frame) : 0.093
Stream size : 2.52 GiB (93%)
Default : Yes
Forced : No
Color range : Limited
Color primaries : BT.709
Transfer characteristics : BT.709
Matrix coefficients : BT.709
Audio
ID : 2
Format : AC-3
Format/Info : Audio Coding 3
Commercial name : Dolby Digital
Codec ID : A_AC3
Duration : 1 h 18 min
Bit rate mode : Constant
Bit rate : 320 kb/s
Channel(s) : 2 channels
Channel layout : L R
Sampling rate : 48.0 kHz
Frame rate : 31.250 FPS (1536 SPF)
Compression mode : Lossy
Stream size : 179 MiB (6%)
Language : Russian
Service kind : Complete Main
Default : Yes
Forced : No
Text
ID : 3
Format : UTF-8
Codec ID : S_TEXT/UTF8
Codec ID/Info : UTF-8 Plain Text
Duration : 1 h 18 min
Bit rate : 108 b/s
Count of elements : 1493
Stream size : 62.4 KiB (0%)
Language : Russian
Default : Yes
Forced : No
--Релиз от: Flarrow Films
Примечание: Релиз без рекламы-
[korsars.pro].t46643.torrent 
Торрент: Зарегистрирован [ 2021-09-29 23:30 ] · 68D61486147E1C8CBF10FF24DBF745EAA210123C

Скачать .torrent

Размер .torrent файла 14 KB

Статус: проверено
.torrent скачан: 5 раз
Размер: 2,7 GB
Правила
4udaki(30-Сен-21)

Вы не зарегистрированы на нашем сайте. Вам доступна для скачивания только часть контента. Чтобы увидеть весь контент сайта, пожалуйста, зарегистрироруйтесь.

Дешевый и быстрый Сидбокс

Ключи и пин-коды

Игры, Кредитные карты, IP-телефония, Интернет провайдеры, Мобильная связь, Спутниковое ТВ

Электронные книги

Бизнес и экономика, Дом, быт, семья, досуг, Санкт-Петербург, Компьютеры и интернет, Наука и образование, Техническая литература, Юридическая литература

Цифровые товары

iTunes & App Store, Базы данных, Дизайн, Доступ к ресурсам, Kарты продления, ключи, Фотографии, Шаблоны для сайтов

Программное обеспечение

Безопасность, Игры, PC, Интернет, Мобильная связь, Программирование, Продвижение сайтов (SEO), Утилиты
У Вас отключен VIP статус, поэтому Вам показывается реклама на сайте. Вы можете поддержать наш ресурс и приобрести VIP статус, тем самым отключив показ рекламы на сайте, а ещё VIP пользователи получают возможность

смотреть аниме онлайн в HD качестве

(не распространяется на раздел Flarrow Films), а так же получить 5 инвайтов, которыми можно поделиться с друзьями или знакомыми.
Дешевый и быстрый Сидбокс

Ключи и пин-коды

Игры, Кредитные карты, IP-телефония, Интернет провайдеры, Мобильная связь, Спутниковое ТВ

Электронные книги

Бизнес и экономика, Дом, быт, семья, досуг, Санкт-Петербург, Компьютеры и интернет, Наука и образование, Техническая литература, Юридическая литература

Цифровые товары

iTunes & App Store, Базы данных, Дизайн, Доступ к ресурсам, Kарты продления, ключи, Фотографии, Шаблоны для сайтов

Программное обеспечение

Безопасность, Игры, PC, Интернет, Мобильная связь, Программирование, Продвижение сайтов (SEO), Утилиты
[Профиль] [ЛС]
Показать сообщения:    
Ответить на тему

Текущее время: 24-Окт 19:32

Часовой пояс: UTC + 4



Вы не можете начинать темы
Вы не можете отвечать на сообщения
Вы не можете редактировать свои сообщения
Вы не можете удалять свои сообщения
Вы не можете голосовать в опросах
Вы не можете прикреплять файлы к сообщениям
Вы можете скачивать файлы
Анализ сайта korsars.pro Яндекс.Метрика