Рандеву с пулей: Смерть или пуля / Рандеву с пулей: Кошмар или королева / Date A Bullet: Dead or Bullet / Date A Bullet: Nightmare or Queen (2020) BDRip-HEVC 1080p от Fortuna.TV | StudioBand

Ответить на тему
Статистика раздачи [Обновить пиров]
Размер:  1,79 GB   |    Зарегистрирован:  14 дней   |    .torrent скачан:  21 раз
Раздают:  46  [  0 KB/s  ]   Качают:  4  [  0 KB/s  ]   Подробная статистика пиров
 
   
 
 
Автор Сообщение

loe3df ®

Оффлайн

Медали
VIPАктивный раздающий 1Активный раздающий 2
Активный релизер Аниме (100)Активный релизер Аниме (50)Орденосец 1 степени


Пол: Не указан

Стаж: 1 год 9 месяцев

Наличие запрета:

Сообщений: 360

Откуда: Die Welt von Hentai

Отдача: не определено

Загрузка: не определено

Нажми


Скачать Adguard бесплатно

Создавать темы 25-Сен-2021 01:44

[Цитировать]

Рандеву с пулей: Смерть или пуля / Рандеву с пулей: Кошмар или королева / Date A Bullet: Dead or Bullet / Date A Bullet: Nightmare or Queen- Год выпуска: 2020
Страна: Япония
Жанр: Фантастика, приключения, короткометражный
Продолжительность: 2 ~ 00:26:00
Перевод: Дублированный | StudioBand
Режиссёр: Дзюн Накагава
Возрастное ограничение: 16+-Рейтинг:
-Описание:
Пустая — юная девушка, очнувшаяся в неизвестном ей мире. Она не помнит ни кто она, ни что было в её прошлом, ни что ей нужно делать теперь. В этом мире она встречает Куруми Токисаки, которая приводит её в школу к другим девушкам, известным как «полудухи». Они все готовы убить друг друга, но зачем? И зачем здесь она?-Качество: BDRip 1080p
Формат: MKV (HEVC)
Видео: 1920x1080, ~ 3 792 kb/s, 23.976 FPS. 10 bits
Аудио RUS: AAC, ~ 128 kb/s, 2 channels, 48.0 kHz
Аудио JAP: FLAC, ~ 618 kb/s, 6 channels, 48.0 kHz
Субтитры: Русские полные [Alvakarp]
Навигация по главам: есть
-

Скриншоты

MediaInfo

General
Unique ID : 26645704460217992598697712388293029449 (0x140BC6A8A6DE0F8D9573DB007C306E49)
Complete name : [FortunaTV] Date a Bullet Dead or Bullet [BDRip 1920x1080 HEVC FLAC RUS + JAP].mkv
Format : Matroska
Format version : Version 4
File size : 729 MiB
Duration : 22 min 26 s
Overall bit rate mode : Variable
Overall bit rate : 4 545 kb/s
Encoded date : UTC 2021-09-25 11:25:49
Writing application : mkvmerge v39.0.0 ('In The Waiting Line') 64-bit
Writing library : libebml v1.3.9 + libmatroska v1.5.2
Video
ID : 1
Format : HEVC
Format/Info : High Efficiency Video Coding
Format profile : Main 10@L4@High
Codec ID : V_MPEGH/ISO/HEVC
Duration : 22 min 26 s
Bit rate : 3 792 kb/s
Width : 1 920 pixels
Height : 1 080 pixels
Display aspect ratio : 16:9
Frame rate mode : Constant
Frame rate : 23.976 (24000/1001) FPS
Color space : YUV
Chroma subsampling : 4:2:0
Bit depth : 10 bits
Bits/(Pixel*Frame) : 0.076
Stream size : 609 MiB (83%)
Writing library : x265 3.4+30-g6722fce1f:[Windows][GCC 10.2.0][64 bit] 10bit
Encoding settings : cpuid=1111039 / frame-threads=5 / numa-pools=32 / wpp / no-pmode / no-pme / no-psnr / no-ssim / log-level=2 / input-csp=1 / input-res=1920x1080 / interlace=0 / total-frames=16001 / level-idc=0 / high-tier=1 / uhd-bd=0 / ref=5 / no-allow-non-conformance / no-repeat-headers / annexb / no-aud / no-hrd / info / hash=0 / no-temporal-layers / no-open-gop / min-keyint=50 / keyint=360 / gop-lookahead=0 / bframes=8 / b-adapt=2 / b-pyramid / bframe-bias=0 / rc-lookahead=80 / lookahead-slices=4 / scenecut=40 / hist-scenecut=0 / radl=0 / no-splice / no-intra-refresh / ctu=32 / min-cu-size=8 / no-rect / no-amp / max-tu-size=32 / tu-inter-depth=2 / tu-intra-depth=2 / limit-tu=0 / rdoq-level=2 / dynamic-rd=0.00 / no-ssim-rd / signhide / no-tskip / nr-intra=0 / nr-inter=0 / no-constrained-intra / no-strong-intra-smoothing / max-merge=3 / limit-refs=2 / limit-modes / me=3 / subme=4 / merange=44 / temporal-mvp / no-frame-dup / no-hme / weightp / weightb / no-analyze-src-pics / deblock=-1:-1 / no-sao / no-sao-non-deblock / rd=5 / selective-sao=0 / no-early-skip / rskip / no-fast-intra / no-tskip-fast / no-cu-lossless / b-intra / no-splitrd-skip / rdpenalty=0 / psy-rd=1.20 / psy-rdoq=2.00 / no-rd-refine / no-lossless / cbqpoffs=-2 / crqpoffs=-2 / rc=crf / crf=16.0 / qcomp=0.72 / qpstep=4 / stats-write=0 / stats-read=0 / vbv-maxrate=28000 / vbv-bufsize=35000 / vbv-init=0.9 / min-vbv-fullness=50.0 / max-vbv-fullness=80.0 / crf-max=0.0 / crf-min=0.0 / ipratio=1.40 / pbratio=1.30 / aq-mode=3 / aq-strength=0.86 / cutree / zone-count=0 / no-strict-cbr / qg-size=32 / no-rc-grain / qpmax=69 / qpmin=0 / no-const-vbv / sar=0 / overscan=0 / videoformat=5 / range=0 / colorprim=2 / transfer=1 / colormatrix=2 / chromaloc=0 / display-window=0 / cll=0,0 / min-luma=0 / max-luma=1023 / log2-max-poc-lsb=8 / vui-timing-info / vui-hrd-info / slices=1 / no-opt-qp-pps / no-opt-ref-list-length-pps / no-multi-pass-opt-rps / scenecut-bias=0.05 / hist-threshold=0.03 / no-opt-cu-delta-qp / no-aq-motion / no-hdr10 / no-hdr10-opt / no-dhdr10-opt / no-idr-recovery-sei / analysis-reuse-level=0 / analysis-save-reuse-level=0 / analysis-load-reuse-level=0 / scale-factor=0 / refine-intra=0 / refine-inter=0 / refine-mv=1 / refine-ctu-distortion=0 / no-limit-sao / ctu-info=0 / no-lowpass-dct / refine-analysis-type=0 / copy-pic=1 / max-ausize-factor=1.0 / no-dynamic-refine / no-single-sei / no-hevc-aq / no-svt / no-field / qp-adaptation-range=1.00 / no-scenecut-aware-qpconformance-window-offsets / right=0 / bottom=0 / decoder-max-rate=0 / no-vbv-live-multi-pass
Language : Japanese
Default : Yes
Forced : No
Color range : Limited
Transfer characteristics : BT.709
Audio #1
ID : 2
Format : AAC LC
Format/Info : Advanced Audio Codec Low Complexity
Codec ID : A_AAC-2
Duration : 22 min 26 s
Bit rate : 132 kb/s
Channel(s) : 2 channels
Channel layout : L R
Sampling rate : 48.0 kHz
Frame rate : 46.875 FPS (1024 SPF)
Compression mode : Lossy
Stream size : 21.1 MiB (3%)
Language : Russian
Default : Yes
Forced : No
Audio #2
ID : 3
Format : FLAC
Format/Info : Free Lossless Audio Codec
Codec ID : A_FLAC
Duration : 22 min 26 s
Bit rate mode : Variable
Bit rate : 618 kb/s
Channel(s) : 2 channels
Channel layout : L R
Sampling rate : 48.0 kHz
Frame rate : 11.719 FPS (4096 SPF)
Bit depth : 16 bits
Compression mode : Lossless
Stream size : 99.2 MiB (14%)
Writing library : libFLAC 1.3.2 (UTC 2017-01-01)
Language : Japanese
Default : No
Forced : No
Text
ID : 4
Format : ASS
Codec ID : S_TEXT/ASS
Codec ID/Info : Advanced Sub Station Alpha
Duration : 21 min 50 s
Bit rate : 131 b/s
Count of elements : 299
Compression mode : Lossless
Stream size : 21.1 KiB (0%)
Title : Alvakarp
Language : Russian
Default : No
Forced : No
Menu
00:00:00.000 : :Studio Logo
00:00:11.011 : :Part A
00:02:06.043 : :Opening
00:03:36.007 : :Part B
00:12:43.054 : :Title Logo
00:12:49.060 : :Part C
Релиз от: Fortuna.TV
Ретайминг: DS29028888-10.10.2021 обновлено. Второй фильм был перезалит, файл был битый по моей ошибки.

Релиз подготовлен Fortuna.TV

[korsars.pro].t46397.torrent 
Торрент: Зарегистрирован [ 2021-10-10 15:40 ] · ECAC49855797771C09DA046D8650C9237B2CC107

Скачать .torrent

Размер .torrent файла 19 KB

Статус: проверено
.torrent скачан: 21 раз
Размер: 1,79 GB
Правила
Jordan7(25-Сен-21), KRACER(25-Сен-21), 4udaki(25-Сен-21)
Похожие темы

Вы не зарегистрированы на нашем сайте. Вам доступна для скачивания только часть контента. Чтобы увидеть весь контент сайта, пожалуйста, зарегистрироруйтесь.

Дешевый и быстрый Сидбокс

Ключи и пин-коды

Игры, Кредитные карты, IP-телефония, Интернет провайдеры, Мобильная связь, Спутниковое ТВ

Электронные книги

Бизнес и экономика, Дом, быт, семья, досуг, Санкт-Петербург, Компьютеры и интернет, Наука и образование, Техническая литература, Юридическая литература

Цифровые товары

iTunes & App Store, Базы данных, Дизайн, Доступ к ресурсам, Kарты продления, ключи, Фотографии, Шаблоны для сайтов

Программное обеспечение

Безопасность, Игры, PC, Интернет, Мобильная связь, Программирование, Продвижение сайтов (SEO), Утилиты
У Вас отключен VIP статус, поэтому Вам показывается реклама на сайте. Вы можете поддержать наш ресурс и приобрести VIP статус, тем самым отключив показ рекламы на сайте, а ещё VIP пользователи получают возможность

смотреть аниме онлайн в HD качестве

(не распространяется на раздел Flarrow Films), а так же получить 5 инвайтов, которыми можно поделиться с друзьями или знакомыми.
Дешевый и быстрый Сидбокс

Ключи и пин-коды

Игры, Кредитные карты, IP-телефония, Интернет провайдеры, Мобильная связь, Спутниковое ТВ

Электронные книги

Бизнес и экономика, Дом, быт, семья, досуг, Санкт-Петербург, Компьютеры и интернет, Наука и образование, Техническая литература, Юридическая литература

Цифровые товары

iTunes & App Store, Базы данных, Дизайн, Доступ к ресурсам, Kарты продления, ключи, Фотографии, Шаблоны для сайтов

Программное обеспечение

Безопасность, Игры, PC, Интернет, Мобильная связь, Программирование, Продвижение сайтов (SEO), Утилиты


Последний раз редактировалось: loe3df (2021-10-10 15:44), всего редактировалось 3 раз(а)
[Профиль] [ЛС]

loe3df ®

Оффлайн

Медали
VIPАктивный раздающий 1Активный раздающий 2
Активный релизер Аниме (100)Активный релизер Аниме (50)Орденосец 1 степени


Пол: Не указан

Стаж: 1 год 9 месяцев

Наличие запрета:

Сообщений: 360

Откуда: Die Welt von Hentai

Отдача: не определено

Загрузка: не определено

Нажми


Скачать Adguard бесплатно

Создавать темы 25-Сен-2021 14:39 (спустя 12 часов)

[Цитировать]

P.S первый фильм битый, сегодня будет перезалив.
Мда, рип от "ReinForce"...
[Профиль] [ЛС]

loe3df ®

Оффлайн

Медали
VIPАктивный раздающий 1Активный раздающий 2
Активный релизер Аниме (100)Активный релизер Аниме (50)Орденосец 1 степени


Пол: Не указан

Стаж: 1 год 9 месяцев

Наличие запрета:

Сообщений: 360

Откуда: Die Welt von Hentai

Отдача: не определено

Загрузка: не определено

Нажми


Скачать Adguard бесплатно

Создавать темы 25-Сен-2021 15:26 (спустя 46 минут)

[Цитировать]

26.09.2021 обновлено. Рип заменен на более качественный.
[Профиль] [ЛС]

Jordan7

Оффлайн

Медали
VIPМеценат


Пол: Мужской

Стаж: 11 месяцев 19 дней

Наличие запрета:

Сообщений: 26

Отдача: не определено

Загрузка: не определено

Нажми


Скачать Adguard бесплатно

Создавать темы 26-Сен-2021 09:40 (спустя 18 часов)

[Цитировать]

2 серия тоже глючная
[Профиль] [ЛС]

loe3df ®

Оффлайн

Медали
VIPАктивный раздающий 1Активный раздающий 2
Активный релизер Аниме (100)Активный релизер Аниме (50)Орденосец 1 степени


Пол: Не указан

Стаж: 1 год 9 месяцев

Наличие запрета:

Сообщений: 360

Откуда: Die Welt von Hentai

Отдача: не определено

Загрузка: не определено

Нажми


Скачать Adguard бесплатно

Создавать темы 10-Окт-2021 15:40 (спустя 14 дней)

[Цитировать]

10.10.2021 обновлено. Второй фильм был перезалит, файл был битый из-за моей ошибки.
[Профиль] [ЛС]

Jordan7

Оффлайн

Медали
VIPМеценат


Пол: Мужской

Стаж: 11 месяцев 19 дней

Наличие запрета:

Сообщений: 26

Отдача: не определено

Загрузка: не определено

Нажми


Скачать Adguard бесплатно

Создавать темы 10-Окт-2021 23:10 (спустя 7 часов)

[Цитировать]

спасибо
[Профиль] [ЛС]
Показать сообщения:    
Ответить на тему

Текущее время: 24-Окт 20:20

Часовой пояс: UTC + 4



Вы не можете начинать темы
Вы не можете отвечать на сообщения
Вы не можете редактировать свои сообщения
Вы не можете удалять свои сообщения
Вы не можете голосовать в опросах
Вы не можете прикреплять файлы к сообщениям
Вы можете скачивать файлы
Анализ сайта korsars.pro Яндекс.Метрика