Локи / Loki [S01] (2021) WEB-DLRip 1080p | D | Локализованная версия | Flarrow Films

Ответить на тему
Статистика раздачи [Обновить пиров]
Размер:  14,06 GB   |    Зарегистрирован:  2 месяца 13 дней   |    .torrent скачан:  35 раз
Раздают:  347  [  2 MB/s  ]   Качают:  111  [  5 MB/s  ]   Подробная статистика пиров
 
   
 
 
Автор Сообщение

flarrowfilms ®

Оффлайн

Медали
VIPДруг трекераСупер Мега Контер Квейк


Пол: Не указан

Стаж: 1 год 6 месяцев

Наличие запрета:

Сообщений: 100

Отдача: 5 Mb/s

Загрузка: 5 Mb/s

Нажми


Скачать Adguard бесплатно

Создавать темы 22-Июн-2021 00:04

[Цитировать]

Информация о фильме
Название: Локи
Оригинальное название: Loki
Год выхода: 2021
Жанр: фантастика, фэнтези, боевик, приключения
Режиссер: Кейт Херрон
В ролях: Том Хиддлстон, Софи Ди Мартино, Ричард Э. Грант, Гугу Эмбата-Ро, Вунми Моссаку, Оуэн Уилсон, Эрика Коулмэн, Саша Лэйн, Джон Ливайн, Люсиус Бастон мл.
О фильме:
Локи попадает в таинственную организацию «Управление временными аномалиями» после того, как он украл Тессеракт, и путешествует во времени, меняя историю.

Страна: США
Продолжительность: 00:50:19 (серия)
Перевод: Дублированный (профессиональный) | Flarrow Films
Роли дублировали: Дмитрий Лунёв, Константин Погодаев, Анастасия Скачкова, Глеб Петров, Алена Козлова, Даниил Эльдаров, Ахилл Намазов, Евгений Леонов, Рина Чернышова, Семён Евсиков, Лена Лунина, Алина Лихачева, Виктор Дарк, Татьяна Тарасова, Андрей Маслов, Дмитрий Зверев, Алёна Соколова, Дмитрий Мальков, Денис Кузьмичёв, Алексей Ядренников, Дмитрий Бугаков, Рустам Шайхиев, Виталий Кашеваров, Максим Жидков и Андрей Лысенко.
Файл
Формат: MKV
Кодек: MPEG-4 AVC
Качество: WEB-DLRip 1080p (локализованный видеоряд)
Видео: 1920х1080, ~6 731 kb/s, 24.000, 8 bits
Аудио: Russian: AC-3, 320 kb/s, 2 channels, 48.0 kHz
Субтитры: русские (отключаемые)
Сэмпл: скачать-

MediaInfo

General
Unique ID : 282429944494432770582893907396523118796 (0xD47A075ACE6E815A1FB533560A72D0CC)
Complete name : C:\Flarrow\Loki.S01.1080p.D.Flarrow.Films\Loki.S01E01.1080p.Flarrow.Films.mkv
Format : Matroska
Format version : Version 4
File size : 2.48 GiB
Duration : 50 min 20 s
Overall bit rate : 7 051 kb/s
Encoded date : UTC 2021-06-21 18:45:19
Writing application : mkvmerge v32.0.0 ('Astral Progressions') 64-bit
Writing library : libebml v1.3.7 + libmatroska v1.5.0
Video
ID : 1
Format : AVC
Format/Info : Advanced Video Codec
Format profile : High@L4
Format settings : CABAC / 4 Ref Frames
Format settings, CABAC : Yes
Format settings, Reference : 4 frames
Codec ID : V_MPEG4/ISO/AVC
Duration : 50 min 19 s
Bit rate : 6 731 kb/s
Width : 1 920 pixels
Height : 1 080 pixels
Display aspect ratio : 16:9
Frame rate mode : Constant
Frame rate : 24.000 FPS
Color space : YUV
Chroma subsampling : 4:2:0
Bit depth : 8 bits
Scan type : Progressive
Bits/(Pixel*Frame) : 0.135
Stream size : 2.37 GiB (95%)
Language : Russian
Default : Yes
Forced : No
Color range : Limited
Color primaries : BT.709
Transfer characteristics : BT.709
Matrix coefficients : BT.709
Audio #1
ID : 2
Format : AC-3
Format/Info : Audio Coding 3
Commercial name : Dolby Digital
Codec ID : A_AC3
Duration : 50 min 20 s
Bit rate mode : Constant
Bit rate : 320 kb/s
Channel(s) : 2 channels
Channel layout : L R
Sampling rate : 44.1 kHz
Frame rate : 28.711 FPS (1536 SPF)
Compression mode : Lossy
Stream size : 115 MiB (5%)
Language : Russian
Service kind : Complete Main
Default : Yes
Forced : No
Text
ID : 3
Format : UTF-8
Codec ID : S_TEXT/UTF8
Codec ID/Info : UTF-8 Plain Text
Duration : 50 min 13 s
Bit rate : 85 b/s
Count of elements : 584
Stream size : 31.4 KiB (0%)
Language : Russian
Default : Yes
Forced : No
--Релиз от: Flarrow Films
Примечание: Без интро Flarrow Films-11.08.2021 обновлено. Добавлена 6 серии- -
[korsars.pro].t41797.torrent 
Торрент: Зарегистрирован [ 2021-08-11 10:14 ] · EB6DB8031B2A0C317B24A2065CE886EA60BDADDC

Скачать .torrent

Размер .torrent файла 36 KB

Статус: проверено
.torrent скачан: 35 раз
Размер: 14,06 GB
Правила
MARVEL(22-Июн-21), Woitler(22-Июн-21), sdv17(24-Июн-21), Rezident09(12-Авг-21)
Похожие темы

Вы не зарегистрированы на нашем сайте. Вам доступна для скачивания только часть контента. Чтобы увидеть весь контент сайта, пожалуйста, зарегистрироруйтесь.

Дешевый и быстрый Сидбокс

Ключи и пин-коды

Игры, Кредитные карты, IP-телефония, Интернет провайдеры, Мобильная связь, Спутниковое ТВ

Электронные книги

Бизнес и экономика, Дом, быт, семья, досуг, Санкт-Петербург, Компьютеры и интернет, Наука и образование, Техническая литература, Юридическая литература

Цифровые товары

iTunes & App Store, Базы данных, Дизайн, Доступ к ресурсам, Kарты продления, ключи, Фотографии, Шаблоны для сайтов

Программное обеспечение

Безопасность, Игры, PC, Интернет, Мобильная связь, Программирование, Продвижение сайтов (SEO), Утилиты
У Вас отключен VIP статус, поэтому Вам показывается реклама на сайте. Вы можете поддержать наш ресурс и приобрести VIP статус, тем самым отключив показ рекламы на сайте, а ещё VIP пользователи получают возможность

смотреть аниме онлайн в HD качестве

(не распространяется на раздел Flarrow Films), а так же получить 5 инвайтов, которыми можно поделиться с друзьями или знакомыми.
Дешевый и быстрый Сидбокс

Ключи и пин-коды

Игры, Кредитные карты, IP-телефония, Интернет провайдеры, Мобильная связь, Спутниковое ТВ

Электронные книги

Бизнес и экономика, Дом, быт, семья, досуг, Санкт-Петербург, Компьютеры и интернет, Наука и образование, Техническая литература, Юридическая литература

Цифровые товары

iTunes & App Store, Базы данных, Дизайн, Доступ к ресурсам, Kарты продления, ключи, Фотографии, Шаблоны для сайтов

Программное обеспечение

Безопасность, Игры, PC, Интернет, Мобильная связь, Программирование, Продвижение сайтов (SEO), Утилиты
[Профиль] [ЛС]
Показать сообщения:    
Ответить на тему

Текущее время: 24-Окт 20:17

Часовой пояс: UTC + 4



Вы не можете начинать темы
Вы не можете отвечать на сообщения
Вы не можете редактировать свои сообщения
Вы не можете удалять свои сообщения
Вы не можете голосовать в опросах
Вы не можете прикреплять файлы к сообщениям
Вы можете скачивать файлы
Анализ сайта korsars.pro Яндекс.Метрика