Мадагаскар: Маленькие и дикие / Madagascar: A Little Wild [S01] (2020) WEB-DLRip 1080p | Flarrow Films

Ответить на тему
Статистика раздачи [Обновить пиров]
Размер:  3,67 GB   |    Зарегистрирован:  4 дня   |    .torrent скачан:  5 раз
Раздают:  42  [  2 MB/s  ]   Качают:  11  [  0 KB/s  ]   Подробная статистика пиров
 
   
 
 
Автор Сообщение

flarrowfilms ®

Оффлайн

Медали
VIPДруг трекераСупер Мега Контер Квейк


Пол: Не указан

Стаж: 1 год

Наличие запрета:

Сообщений: 78

Отдача: 5 Mb/s

Загрузка: 5 Mb/s

Нажми


Скачать Adguard бесплатно

Создавать темы 08-Апр-2021 22:53

[Цитировать]

Информация о фильме
Название: Мадагаскар: Маленькие и дикие
Оригинальное название: Madagascar: A Little Wild
Год выхода: 2020
Жанр: мультфильм, мюзикл, комедия, приключения, семейный
Режиссер: Erik Kling, Robert Briggs, Крэйг Джордж
В ролях: Шейлин Бектон, Tucker Chandler, Люк Лоу, Амир О'Нил, Кендес Козак, Джоанна Стейн, Эрик Петерсон, Чарльз Адлер, Jasmine Gatewood, Тру Валентино
О фильме:
Мультсериал рассказывает о приключениях мадагаскарских героев, льва Алекса, зебры Мартина, гиппопотама Глории и жирафа Мелмана в те времена, когда они были ещё детьми в нью-йоркском зоопарке....

Страна: США
Продолжительность: 00:23:17 (серия)
Перевод: Профессиональный (многоголосый, закадровый) | Flarrow Films
Роли озвучивали: Ахилл Намазов, Евгений Леонов, Рута Новикова, Рина Чернышова, Алина Лихачёва, Виталий Кашеваров, Василиса Цветкова и Семён Евсиков
Файл
Формат: MKV
Кодек: MPEG-4 AVC
Качество: WEB-DLRip 1080p
Видео: 1920х1080, ~ 3 783 kb/s, 23.976, 8 bits
Звук: AC-3, 320 kb/s, 2 channels, 48.0 kHz
Субтитры: русские (хардсаб на песни), русские (в составе контейнера, отключаемые)-

MediaInfo

General
Unique ID : 222423780856760344271628836024818639556 (0xA7554311BFDF698ADF106D587B24A2C4)
Complete name : C:\Flarrow\Madagascar.A.Little.Wild.S01.1080p.Flarrow.Films\Madagascar.A.Little.Wild.S01E01.mkv
Format : Matroska
Format version : Version 4
File size : 684 MiB
Duration : 23 min 18 s
Overall bit rate : 4 102 kb/s
Encoded date : UTC 2021-03-11 14:12:00
Writing application : mkvmerge v32.0.0 ('Astral Progressions') 64-bit
Writing library : libebml v1.3.7 + libmatroska v1.5.0
Video
ID : 1
Format : AVC
Format/Info : Advanced Video Codec
Format profile : High@L4.1
Format settings : CABAC / 4 Ref Frames
Format settings, CABAC : Yes
Format settings, Reference : 4 frames
Codec ID : V_MPEG4/ISO/AVC
Duration : 23 min 17 s
Bit rate : 3 783 kb/s
Width : 1 920 pixels
Height : 1 080 pixels
Display aspect ratio : 16:9
Frame rate mode : Constant
Frame rate : 23.976 (24000/1001) FPS
Color space : YUV
Chroma subsampling : 4:2:0
Bit depth : 8 bits
Scan type : Progressive
Bits/(Pixel*Frame) : 0.076
Stream size : 630 MiB (92%)
Writing library : x264 core 146 r2538 121396c
Encoding settings : cabac=1 / ref=4 / deblock=1:1:1 / analyse=0x3:0x113 / me=hex / subme=6 / psy=1 / psy_rd=0.40:0.00 / mixed_ref=1 / me_range=16 / chroma_me=1 / trellis=1 / 8x8dct=1 / cqm=0 / deadzone=21,11 / fast_pskip=1 / chroma_qp_offset=-2 / threads=6 / lookahead_threads=1 / sliced_threads=0 / nr=0 / decimate=1 / interlaced=0 / bluray_compat=0 / constrained_intra=0 / bframes=5 / b_pyramid=2 / b_adapt=1 / b_bias=0 / direct=1 / weightb=1 / open_gop=0 / weightp=1 / keyint=250 / keyint_min=23 / scenecut=40 / intra_refresh=0 / rc_lookahead=30 / rc=crf / mbtree=1 / crf=19.0 / qcomp=0.60 / qpmin=0 / qpmax=69 / qpstep=4 / ip_ratio=1.40 / aq=1:0.60
Language : Russian
Default : Yes
Forced : No
Audio
ID : 2
Format : AC-3
Format/Info : Audio Coding 3
Commercial name : Dolby Digital
Codec ID : A_AC3
Duration : 23 min 18 s
Bit rate mode : Constant
Bit rate : 320 kb/s
Channel(s) : 2 channels
Channel layout : L R
Sampling rate : 48.0 kHz
Frame rate : 31.250 FPS (1536 SPF)
Compression mode : Lossy
Stream size : 53.4 MiB (8%)
Language : Russian
Service kind : Complete Main
Default : Yes
Forced : No
Text
ID : 3
Format : UTF-8
Codec ID : S_TEXT/UTF8
Codec ID/Info : UTF-8 Plain Text
Duration : 22 min 45 s
Bit rate : 136 b/s
Count of elements : 408
Stream size : 22.7 KiB (0%)
Language : Russian
Default : Yes
Forced : No
--Релиз от: Flarrow Films
Примечание: Без интро Flarrow Films- -
[korsars.pro].t38141.torrent 
Торрент: Зарегистрирован [ 2021-04-08 22:53 ] · F90B63F9DB3AAB68DD020C776097D5991FFFA476

Скачать .torrent

Размер .torrent файла 19 KB

Статус: проверено
.torrent скачан: 5 раз
Размер: 3,67 GB
Правила
Похожие темы

Вы не зарегистрированы на нашем сайте. Вам доступна для скачивания только часть контента. Чтобы увидеть весь контент сайта, пожалуйста, зарегистрироруйтесь.

У Вас отключен VIP статус, поэтому Вам показывается реклама на сайте. Вы можете поддержать наш ресурс и приобрести VIP статус, тем самым отключив показ рекламы на сайте, а ещё VIP пользователи получают возможность

смотреть аниме онлайн в HD качестве

(не распространяется на раздел Flarrow Films), а так же получить 5 инвайтов, которыми можно поделиться с друзьями или знакомыми.
[Профиль] [ЛС]
Показать сообщения:    
Ответить на тему

Текущее время: 13-Апр 11:59

Часовой пояс: UTC + 4



Вы не можете начинать темы
Вы не можете отвечать на сообщения
Вы не можете редактировать свои сообщения
Вы не можете удалять свои сообщения
Вы не можете голосовать в опросах
Вы не можете прикреплять файлы к сообщениям
Вы можете скачивать файлы
Анализ сайта korsars.pro Яндекс.Метрика