Король шаманов (2021) / Шаман Кинг (2021) / Shaman King (2021) [01-02 из 52] WEBRip 1080p | Flarrow Films

Ответить на тему
Статистика раздачи [Обновить пиров]
Размер:  1,28 GB   |    Зарегистрирован:  2 дня 11 часов   |    .torrent скачан:  55 раз
Раздают:  28  [  0 KB/s  ]   Качают:  11  [  0 KB/s  ]   Подробная статистика пиров
 
   
 
 
Автор Сообщение

4udaki ®

Оффлайн

Медали


Пол: Мужской

Стаж: 6 лет 5 месяцев

Наличие запрета:

Сообщений: 9757

Откуда: korsars.pro

Отдача: 2 Mb/s

Загрузка: 20 Mb/s

Нажми


Скачать Adguard бесплатно

Создавать темы 04-Апр-2021 22:20

[Цитировать]

Король шаманов (2021) / Шаман Кинг (2021) / Shaman King (2021)-Год выпуска: 2021
Страна:
Япония
Жанр: экшен, приключения, комедия, суперсила, сверхъестественное, сёнен
Продолжительность: ~ 00:24:00 (серия)
Перевод: Профессиональный (многоголосый, закадровый) | Flarrow Films
Режиссёр: Фурута Дзёдзи
Возрастное ограничение: 13+-Рейтинг:
-Релиз от: -Роли озвучивали: Маргарита Щелкунова, Рута Новикова, Ахилл Намазов, Андрей Маслов, Семён Евсиков, Антон Алёхин, Алексей Щегорский, Тимиркан Сиюхов и Татьяна Тарасова.-Перевод на русский язык: RikuSempai's Stuff.-Описание:
Раз в 500 лет проводится турнир на звание Короля шаманов. Начинающий шаман знакомится с обычным подростком, который станет ему лучшим другом и помощником, и он должен во что бы то ни стало победить в соревновании и предотвратить грядущую катастрофу.-Качество: WEBRip 1080p
Формат: MKV (MPEG-4 AVC)
Видео: 1920x1080, ~ 3 184 kb/s, 23.976 FPS. 8 bits
Аудио RUS: AAC LC, ~ 317 kb/s, 2 channels, 48.0 kHz
Субтитры: отсутствуют-

MediaInfo

General
Unique ID                   : 329114563595466122147261516912856040782 (0xF79928C8F30C0C99534318016636854E)
Complete name               : [Flarrowfilms] Shaman.King.E01.(2021).WEBRip.1080p.mkv
Format                      : Matroska
Format version              : Version 4
File size                   : 614 MiB
Duration                    : 23 min 53 s
Overall bit rate            : 3 594 kb/s
Encoded date                : UTC 2021-04-04 18:24:27
Writing application         : mkvmerge v55.0.0 ('Waiting For Space') 64-bit
Writing library             : libebml v1.4.2 + libmatroska v1.6.4
Video
ID                          : 1
Format                      : AVC
Format/Info                 : Advanced Video Codec
Format profile              : Main@L4
Format settings             : CABAC / 4 Ref Frames
Format settings, CABAC      : Yes
Format settings, Reference  : 4 frames
Codec ID                    : V_MPEG4/ISO/AVC
Duration                    : 23 min 51 s
Bit rate                    : 3 184 kb/s
Width                       : 1 920 pixels
Height                      : 1 080 pixels
Display aspect ratio        : 16:9
Frame rate mode             : Constant
Frame rate                  : 23.976 (24000/1001) FPS
Color space                 : YUV
Chroma subsampling          : 4:2:0
Bit depth                   : 8 bits
Scan type                   : Progressive
Bits/(Pixel*Frame)          : 0.064
Stream size                 : 559 MiB (91%)
Writing library             : x264 core 157 r2935 545de2f
Encoding settings           : cabac=1 / ref=3 / deblock=1:0:0 / analyse=0x1:0x111 / me=hex / subme=7 / psy=1 / psy_rd=1.00:0.00 / mixed_ref=1 / me_range=16 / chroma_me=1 / trellis=1 / 8x8dct=0 / cqm=0 / deadzone=21,11 / fast_pskip=1 / chroma_qp_offset=-2 / threads=9 / lookahead_threads=1 / sliced_threads=0 / nr=0 / decimate=1 / interlaced=0 / bluray_compat=0 / constrained_intra=0 / bframes=3 / b_pyramid=2 / b_adapt=1 / b_bias=0 / direct=1 / weightb=1 / open_gop=0 / weightp=2 / keyint=240 / keyint_min=24 / scenecut=40 / intra_refresh=0 / rc_lookahead=40 / rc=abr / mbtree=1 / bitrate=3184 / ratetol=1.0 / qcomp=0.60 / qpmin=0 / qpmax=69 / qpstep=4 / vbv_maxrate=20000 / vbv_bufsize=25000 / nal_hrd=none / filler=0 / ip_ratio=1.40 / aq=1:1.00
Default                     : Yes
Forced                      : No
Color range                 : Limited
Color primaries             : BT.709
Transfer characteristics    : BT.709
Matrix coefficients         : BT.709
Audio
ID                          : 2
Format                      : AAC LC
Format/Info                 : Advanced Audio Codec Low Complexity
Codec ID                    : A_AAC-2
Duration                    : 23 min 53 s
Bit rate                    : 317 kb/s
Channel(s)                  : 2 channels
Channel layout              : L R
Sampling rate               : 48.0 kHz
Frame rate                  : 46.875 FPS (1024 SPF)
Compression mode            : Lossy
Delay relative to video     : -21 ms
Stream size                 : 54.2 MiB (9%)
Title                       : Stereo
Language                    : Russian
Default                     : Yes
Forced                      : No
--10.04.2021 обновлено. Добавлена 2 серия.- -
[korsars.pro].t37953.torrent 
Торрент: Зарегистрирован [ 2021-04-10 23:21 ] · E6B352B96E9BE6F6D3FC675CB7DEAA2672845180

Скачать .torrent

Размер .torrent файла 13 KB

Статус: проверено
.torrent скачан: 55 раз
Размер: 1,28 GB
Правила
Woitler(05-Апр-21), MARVEL(05-Апр-21)
Похожие темы

Вы не зарегистрированы на нашем сайте. Вам доступна для скачивания только часть контента. Чтобы увидеть весь контент сайта, пожалуйста, зарегистрироруйтесь.

У Вас отключен VIP статус, поэтому Вам показывается реклама на сайте. Вы можете поддержать наш ресурс и приобрести VIP статус, тем самым отключив показ рекламы на сайте, а ещё VIP пользователи получают возможность

смотреть аниме онлайн в HD качестве

(не распространяется на раздел Flarrow Films), а так же получить 5 инвайтов, которыми можно поделиться с друзьями или знакомыми.
[Профиль] [ЛС]
Показать сообщения:    
Ответить на тему

Текущее время: 13-Апр 10:29

Часовой пояс: UTC + 4



Вы не можете начинать темы
Вы не можете отвечать на сообщения
Вы не можете редактировать свои сообщения
Вы не можете удалять свои сообщения
Вы не можете голосовать в опросах
Вы не можете прикреплять файлы к сообщениям
Вы можете скачивать файлы
Анализ сайта korsars.pro Яндекс.Метрика