Неуязвимый / Invincible [01x01-05 из 08] (2021) WEB-DL 1080p | Flarrow Films

Ответить на тему
Статистика раздачи [Обновить пиров]
Размер:  6,24 GB   |    Зарегистрирован:  2 дня 16 часов   |    .torrent скачан:  4 раза
Раздают:  8  [  477 KB/s  ]   Качают:  18  [  0 KB/s  ]   Подробная статистика пиров
 
   
 
 
Автор Сообщение

flarrowfilms ®

Оффлайн

Медали
VIPДруг трекераСупер Мега Контер Квейк


Пол: Не указан

Стаж: 1 год

Наличие запрета:

Сообщений: 78

Отдача: 5 Mb/s

Загрузка: 5 Mb/s

Нажми


Скачать Adguard бесплатно

Создавать темы 30-Мар-2021 21:59

[Цитировать]

Информация о фильме
Название: Неуязвимый
Оригинальное название: Invincible
Год выхода: 2021
Жанр: мультфильм, ужасы, фантастика, фэнтези, боевик, триллер, драма, приключения
Режиссеры: Джефф Аллен
В ролях: Сандра О, Дж.К. Симмонс, Стивен Ян, Зази Битц, Уолтон Гоггинс, Гиллиан Джейкобс, Джейсон Манцукас, Грэй Гриффин, Кевин Майкл Ричардсон, Закари Куинто
О фильме:
17-летний Марк Грэйсон узнаёт, что его отец является самым могучим супергероем на Земле. Теперь подростку предстоит совладать с силами, которые достались ему по наследству.

Страна: США
Продолжительность: ~ 00:47:30 (серия)
Перевод: Профессиональный (многоголосый, закадровый) | Flarrow Films
Роли озвучивали: Ахилл Намазов, Дмитрий Бугаков, Алена Козлова, Евгений Леонов, Антон Алёхин, Антон Макаров, Дмитрий Мальков, Алина Лихачёва, Виталий Кашеваров, Василиса Цветкова и Семён Евсиков
Файл
Формат: MKV
Кодек: MPEG-4 AVC
Качество: WEB-DL 1080p
Видео: 1920х1080, ~ 3 625 kb/s, 24.000 FPS, 8 bits
Звук: AC-3, 320 kb/s, 2 channels, 48.0 kHz
Субтитры: русские (отключаемые UTF-8)-

MediaInfo

General
Unique ID : 327690743689990765778986439160296633820 (0xF686F10B3283BFFE1C4BC39A5E0BF5DC)
Complete name : C:\Flarrow\Invincible.2021.S01.1080p.Flarrow.Films\Invincible.2021.S01E01.mkv
Format : Matroska
Format version : Version 4
File size : 1.31 GiB
Duration : 47 min 31 s
Overall bit rate : 3 946 kb/s
Encoded date : UTC 2021-03-30 16:18:44
Writing application : mkvmerge v32.0.0 ('Astral Progressions') 64-bit
Writing library : libebml v1.3.7 + libmatroska v1.5.0
Video
ID : 1
Format : AVC
Format/Info : Advanced Video Codec
Format profile : High@L4
Format settings : CABAC / 4 Ref Frames
Format settings, CABAC : Yes
Format settings, Reference : 4 frames
Codec ID : V_MPEG4/ISO/AVC
Duration : 47 min 30 s
Bit rate mode : Constant
Bit rate : 3 625 kb/s
Nominal bit rate : 10 000 kb/s
Width : 1 920 pixels
Height : 1 080 pixels
Display aspect ratio : 16:9
Frame rate mode : Constant
Frame rate : 24.000 FPS
Color space : YUV
Chroma subsampling : 4:2:0
Bit depth : 8 bits
Scan type : Progressive
Bits/(Pixel*Frame) : 0.073
Stream size : 1.20 GiB (92%)
Default : Yes
Forced : No
Color range : Limited
Color primaries : BT.709
Transfer characteristics : BT.709
Matrix coefficients : BT.709
Audio
ID : 2
Format : AC-3
Format/Info : Audio Coding 3
Commercial name : Dolby Digital
Codec ID : A_AC3
Duration : 47 min 31 s
Bit rate mode : Constant
Bit rate : 320 kb/s
Channel(s) : 2 channels
Channel layout : L R
Sampling rate : 48.0 kHz
Frame rate : 31.250 FPS (1536 SPF)
Compression mode : Lossy
Stream size : 109 MiB (8%)
Language : Russian
Service kind : Complete Main
Default : Yes
Forced : No
Text
ID : 3
Format : UTF-8
Codec ID : S_TEXT/UTF8
Codec ID/Info : UTF-8 Plain Text
Duration : 46 min 18 s
Bit rate : 93 b/s
Count of elements : 585
Stream size : 31.7 KiB (0%)
Language : Russian
Default : Yes
Forced : No
--Релиз от: Flarrow Films
Примечание: Без интро Flarrow Films-10.04.2021 обновлено. Добавлена 5 серия.-
[korsars.pro].t37708.torrent 
Торрент: Зарегистрирован [ 2021-04-10 18:02 ] · D28455DB47A53286257194692AD44ABAD5230894

Скачать .torrent

Размер .torrent файла 16 KB

Статус: проверено
.torrent скачан: 4 раз
Размер: 6,24 GB
Правила
ellolait(30-Мар-21), MARVEL(01-Апр-21)
Похожие темы

Вы не зарегистрированы на нашем сайте. Вам доступна для скачивания только часть контента. Чтобы увидеть весь контент сайта, пожалуйста, зарегистрироруйтесь.

У Вас отключен VIP статус, поэтому Вам показывается реклама на сайте. Вы можете поддержать наш ресурс и приобрести VIP статус, тем самым отключив показ рекламы на сайте, а ещё VIP пользователи получают возможность

смотреть аниме онлайн в HD качестве

(не распространяется на раздел Flarrow Films), а так же получить 5 инвайтов, которыми можно поделиться с друзьями или знакомыми.
[Профиль] [ЛС]
Показать сообщения:    
Ответить на тему

Текущее время: 13-Апр 10:33

Часовой пояс: UTC + 4



Вы не можете начинать темы
Вы не можете отвечать на сообщения
Вы не можете редактировать свои сообщения
Вы не можете удалять свои сообщения
Вы не можете голосовать в опросах
Вы не можете прикреплять файлы к сообщениям
Вы можете скачивать файлы
Анализ сайта korsars.pro Яндекс.Метрика