Мутанты черепашки ниндзя / Teenage Mutant Ninja Turtles [S02] (2003) DVDRip 720p | Flarrow Films

Ответить на тему
Статистика раздачи [Обновить пиров]
Размер:  10,73 GB   |    Зарегистрирован:  26 дней   |    .torrent скачан:  6 раз
Раздают:  1  [  0 KB/s  ]   Качают:  1  [  0 KB/s  ]   Подробная статистика пиров
 
   
 
 
 
Автор Сообщение

flarrowfilms ®

Оффлайн

Медали
VIPДруг трекераСупер Мега Контер Квейк


Пол: Не указан

Стаж: 1 год

Наличие запрета:

Сообщений: 78

Отдача: 5 Mb/s

Загрузка: 5 Mb/s

Нажми


Скачать Adguard бесплатно

Создавать темы 18-Мар-2021 11:24

[Цитировать]

Информация о фильме
Название: Мутанты черепашки ниндзя
Оригинальное название: Teenage Mutant Ninja Turtles
Год выхода: 2003
Жанр: мультфильм, фантастика, боевик, триллер, комедия, приключения
Режиссеры: Рой Бурдин, Чак Паттон
В ролях: Майкл Синтерниклаас, Уэйн Грэйсон, Грегори Аббей, Сэм Ригел, Даррен Данстэн, Марк Томпсон, Вероника Тейлор, Шон Шеммель, Дэвид Зен Мансли, Скотт Рэйоу
О фильме:
Черепашки-ниндзя мешают планам таинственного клана, главой которого является их заклятый враг Шреддер. Неожиданные приключения приведут героев в панцирях в космос, в феодальную Японию и даже в киберпространство.

Страна: США
Продолжительность: ~ 00:22:10 (серия)
Перевод: Профессиональный (многоголосый, закадровый) | Flarrow Films
Роли озвучивали: Денис Кузьмичёв, Ахилл Намазов, Евгений Леонов, Семён Евсиков, Константин Федосеев, Андрей Бригиневич, Рина Чернышова, Рута Новикова, Андрей Лысенко, Дмитрий Лунёв, Виктор Дарк, Алексей Ядренников, Дмитрий Зверев, Андрей Стакионис, Дмитрий Мальков, Дмитрий Рыбин и Антон Макаров.
Вокал: Jackie-O.
Файл
Формат: MKV
Кодек: MPEG-4 AVC
Качество: DVDRip 720p
Видео: 960х720, ~ 2 395 kb/s, 29.970 FPS, 8 bits
Звук: AC-3, 320 kb/s, 2 channels, 48.0 kHz
Субтитры: отсутствуют-

MediaInfo

General
Unique ID : 97167714291127537745378425454327579333 (0x4919D230DD00753C29C44BDF51CD42C5)
Complete name : C:\Flarrow\Teenage.Mutant.Ninja.Turtles.(2003).S02.Flarrow.Films\Teenage Mutant Ninja Turtles (2003) - s02e01.mkv
Format : Matroska
Format version : Version 4
File size : 429 MiB
Duration : 22 min 2 s
Overall bit rate : 2 718 kb/s
Encoded date : UTC 2020-08-04 06:53:19
Writing application : mkvmerge v32.0.0 ('Astral Progressions') 64-bit
Writing library : libebml v1.3.7 + libmatroska v1.5.0
Video
ID : 1
Format : AVC
Format/Info : Advanced Video Codec
Format profile : High@L4.1
Format settings : CABAC / 4 Ref Frames
Format settings, CABAC : Yes
Format settings, Reference : 4 frames
Codec ID : V_MPEG4/ISO/AVC
Duration : 22 min 2 s
Bit rate : 2 395 kb/s
Width : 960 pixels
Height : 720 pixels
Display aspect ratio : 4:3
Frame rate mode : Constant
Frame rate : 29.970 (30000/1001) FPS
Color space : YUV
Chroma subsampling : 4:2:0
Bit depth : 8 bits
Scan type : Progressive
Bits/(Pixel*Frame) : 0.116
Stream size : 378 MiB (88%)
Writing library : x264 core 152 r2851 ba24899
Encoding settings : cabac=1 / ref=4 / deblock=1:0:0 / analyse=0x3:0x133 / me=umh / subme=10 / psy=1 / psy_rd=0.40:0.00 / mixed_ref=1 / me_range=24 / chroma_me=1 / trellis=2 / 8x8dct=1 / cqm=0 / deadzone=21,11 / fast_pskip=1 / chroma_qp_offset=-2 / threads=6 / lookahead_threads=1 / sliced_threads=0 / nr=0 / decimate=1 / interlaced=0 / bluray_compat=0 / constrained_intra=0 / bframes=4 / b_pyramid=2 / b_adapt=2 / b_bias=0 / direct=3 / weightb=1 / open_gop=0 / weightp=2 / keyint=300 / keyint_min=30 / scenecut=40 / intra_refresh=0 / rc_lookahead=60 / rc=crf / mbtree=1 / crf=17.0 / qcomp=0.60 / qpmin=0 / qpmax=69 / qpstep=4 / vbv_maxrate=25000 / vbv_bufsize=25000 / crf_max=0.0 / nal_hrd=none / filler=0 / ip_ratio=1.40 / aq=1:1.00
Default : Yes
Forced : No
Audio
ID : 2
Format : AC-3
Format/Info : Audio Coding 3
Commercial name : Dolby Digital
Codec ID : A_AC3
Duration : 22 min 2 s
Bit rate mode : Constant
Bit rate : 320 kb/s
Channel(s) : 2 channels
Channel layout : L R
Sampling rate : 48.0 kHz
Frame rate : 31.250 FPS (1536 SPF)
Compression mode : Lossy
Stream size : 50.5 MiB (12%)
Service kind : Complete Main
Default : Yes
Forced : No
--Релиз от: Flarrow Films
Примечание: Без интро Flarrow Films- -
[korsars.pro].t37071.torrent 
Торрент: Зарегистрирован [ 2021-03-18 11:24 ] · DFB4B1EB8699A6401F3C1C123B055AAA8C415E77

Скачать .torrent

Размер .torrent файла 29 KB

Статус: проверено
.torrent скачан: 6 раз
Размер: 10,73 GB
Правила
MARVEL(20-Мар-21), Skorp10n(26-Мар-21)
Похожие темы

Вы не зарегистрированы на нашем сайте. Вам доступна для скачивания только часть контента. Чтобы увидеть весь контент сайта, пожалуйста, зарегистрироруйтесь.

У Вас отключен VIP статус, поэтому Вам показывается реклама на сайте. Вы можете поддержать наш ресурс и приобрести VIP статус, тем самым отключив показ рекламы на сайте, а ещё VIP пользователи получают возможность

смотреть аниме онлайн в HD качестве

(не распространяется на раздел Flarrow Films), а так же получить 5 инвайтов, которыми можно поделиться с друзьями или знакомыми.
[Профиль] [ЛС]
Показать сообщения:    
Ответить на тему

Текущее время: 13-Апр 11:46

Часовой пояс: UTC + 4



Вы не можете начинать темы
Вы не можете отвечать на сообщения
Вы не можете редактировать свои сообщения
Вы не можете удалять свои сообщения
Вы не можете голосовать в опросах
Вы не можете прикреплять файлы к сообщениям
Вы можете скачивать файлы
Анализ сайта korsars.pro Яндекс.Метрика