Скуби-Ду при дворе короля Артура / Scooby-Doo! The Sword and the Scoob (2021) WEB-DL 1080p | Flarrow Films

Ответить на тему
Статистика раздачи [Обновить пиров]
Размер:  2,92 GB   |    Зарегистрирован:  1 месяц 3 дня   |    .torrent скачан:  7 раз
Раздают:  115  [  0 KB/s  ]   Качают:  19  [  0 KB/s  ]   Подробная статистика пиров
 
   
 
 
Автор Сообщение

flarrowfilms ®

Оффлайн

Медали
VIPДруг трекераСупер Мега Контер Квейк


Пол: Не указан

Стаж: 1 год

Наличие запрета:

Сообщений: 78

Отдача: 5 Mb/s

Загрузка: 5 Mb/s

Нажми


Скачать Adguard бесплатно

Создавать темы 09-Мар-2021 19:51

[Цитировать]

Информация о фильме
Название: Скуби-Ду при дворе короля Артура
Оригинальное название: Scooby-Doo! The Sword and the Scoob
Год выхода: 2021
Жанр: мультфильм, фэнтези, боевик, комедия, детектив, приключения, семейный
Режиссер: Максвелл Атомс, Кристина Сотта, Мельхиор Цвиер
В ролях: Джонни Рис, Ник Фрост, Грэй Гриффин, Джейсон Айзекс, Мэттью Лиллард, Кейт Микуччи, Фрэнк Уэлкер
О фильме:
Скуби-Ду! Меч и Скуб. Банда отправляется отдохнуть в Англию, где они сталкиваются с колдуньей Морганой Лё Фэй, которая отправляет их в Средневековье, во времена доблестных рыцарей, где они встречают Короля Артура и Мэрлина. Однако события приобретают неожиданный поворот, когда Шэгги, решив разрезать свой сэндвич, вытаскивает из камня легендарный меч Экскалибур, что приводит к хаосу во всём средневековом мире, но ещё более неожиданный поворот событий происходит, когда Моргана Лё Фэй похищает Шэгги!

Страна: США
Продолжительность: 01:16:37
Перевод: Профессиональный (многоголосый, закадровый) | Flarrow Films
Роли озвучивали: Ахилл Намазов, Алена Козлова, Виталий Кашеваров, Евгений Леонов, Денис Кузьмичёв, Рина Чернышова, Рута Новикова, Алексей Щегорский и Семён Евсиков
Файл
Формат: MKV
Кодек: MPEG-4 AVC
Качество: WEB-DL 1080
Видео: 1920х1080, ~5 133 kb/s, 23.976, 8 bits
Звук: AC-3, 320 kb/s, 2 channels, 48.0 kHz
Субтитры: русские (отключаемые)-

MediaInfo

General
Unique ID : 325120361184706816776465714730677335225 (0xF497E766E113631BAD2EB2CE87D074B9)
Complete name : C:\Flarrow\Scooby.Doo.The.Sword.And.The.Scoob.2021.1080p.Flarrow.Films.mkv
Format : Matroska
Format version : Version 4
File size : 2.92 GiB
Duration : 1 h 16 min
Overall bit rate : 5 453 kb/s
Movie name : Scooby.Doo.The.Sword.And.The.Scoob.2021.1080p.WEB-DL.DD5.1.H.264-FGT
Encoded date : UTC 2021-03-09 15:01:07
Writing application : mkvmerge v32.0.0 ('Astral Progressions') 64-bit
Writing library : libebml v1.3.7 + libmatroska v1.5.0
Cover : Yes
Attachments : small_cover.jpg / small_cover_land.jpg / cover.jpg / cover_land.jpg
Video
ID : 1
Format : AVC
Format/Info : Advanced Video Codec
Format profile : High@L4
Format settings : CABAC / 4 Ref Frames
Format settings, CABAC : Yes
Format settings, Reference : 4 frames
Codec ID : V_MPEG4/ISO/AVC
Duration : 1 h 16 min
Bit rate : 5 133 kb/s
Width : 1 920 pixels
Height : 1 080 pixels
Display aspect ratio : 16:9
Frame rate mode : Constant
Frame rate : 23.976 (24000/1001) FPS
Color space : YUV
Chroma subsampling : 4:2:0
Bit depth : 8 bits
Scan type : Progressive
Bits/(Pixel*Frame) : 0.103
Stream size : 2.75 GiB (94%)
Language : English
Default : Yes
Forced : No
Color range : Limited
Color primaries : BT.709
Transfer characteristics : BT.709
Matrix coefficients : BT.709
Audio
ID : 2
Format : AC-3
Format/Info : Audio Coding 3
Commercial name : Dolby Digital
Codec ID : A_AC3
Duration : 1 h 16 min
Bit rate mode : Constant
Bit rate : 320 kb/s
Channel(s) : 2 channels
Channel layout : L R
Sampling rate : 48.0 kHz
Frame rate : 31.250 FPS (1536 SPF)
Compression mode : Lossy
Stream size : 175 MiB (6%)
Language : Russian
Service kind : Complete Main
Default : Yes
Forced : No
Text
ID : 3
Format : UTF-8
Codec ID : S_TEXT/UTF8
Codec ID/Info : UTF-8 Plain Text
Duration : 1 h 12 min
Bit rate : 111 b/s
Count of elements : 1009
Stream size : 59.4 KiB (0%)
Language : Russian
Default : Yes
Forced : No
--Релиз от: Flarrow Films
Примечание: Без интро Flarrow Films-
[korsars.pro].t36628.torrent 
Торрент: Зарегистрирован [ 2021-03-09 19:51 ] · ADBE824FDE2B12376817EBC70EF1511FB0B267C0

Скачать .torrent

Размер .torrent файла 15 KB

Статус: проверено
.torrent скачан: 7 раз
Размер: 2,92 GB
Правила
Похожие темы

Вы не зарегистрированы на нашем сайте. Вам доступна для скачивания только часть контента. Чтобы увидеть весь контент сайта, пожалуйста, зарегистрироруйтесь.

У Вас отключен VIP статус, поэтому Вам показывается реклама на сайте. Вы можете поддержать наш ресурс и приобрести VIP статус, тем самым отключив показ рекламы на сайте, а ещё VIP пользователи получают возможность

смотреть аниме онлайн в HD качестве

(не распространяется на раздел Flarrow Films), а так же получить 5 инвайтов, которыми можно поделиться с друзьями или знакомыми.
[Профиль] [ЛС]
Показать сообщения:    
Ответить на тему

Текущее время: 13-Апр 11:09

Часовой пояс: UTC + 4



Вы не можете начинать темы
Вы не можете отвечать на сообщения
Вы не можете редактировать свои сообщения
Вы не можете удалять свои сообщения
Вы не можете голосовать в опросах
Вы не можете прикреплять файлы к сообщениям
Вы можете скачивать файлы
Анализ сайта korsars.pro Яндекс.Метрика