Буквоежка / Bungaku shôjo (2010) BDRip 1080p от WorldAnime | D, L, L2

Ответить на тему
Статистика раздачи [Обновить пиров]
Размер:  7,75 GB   |    Зарегистрирован:  2 года 1 месяц   |    .torrent скачан:  13 раз
Раздают:  3  [  0 KB/s  ]   Качают:  1  [  0 KB/s  ]   Подробная статистика пиров
   
 
Автор Сообщение

4udaki ®

Оффлайн

Медали


Пол: Мужской

Стаж: 8 лет 4 месяца

Наличие запрета:

Сообщений: 38140

Откуда: korsars.pro

Отдача: 100 Mb/s

Загрузка: 100 Mb/s



Скачать Adguard бесплатно

Создавать темы 06-Фев-2021 17:00

[Цитировать]

[img=right]https://c.Radikal больше не существует. Перезалейте изображение на другой хостинг!/c02/2005/ff/c02a1423d04b.jpg[/img]
Информация о фильме
Название: Буквоежка (фильм) / Литературная барышня / Книжная лакомка
Оригинальное название: Bungaku shôjo / Book Girl / Gekijouban Bungaku Shoujo / Literature Girl / "Bungaku Shoujo" Movie
Год выпуска: 2010
Жанр: Романтика, комедия, драма, фэнтези, школа
Режиссер: Сюнсукэ Тада
Озвучено: Кана Ханадзава, Мию Ирино, Аки Тоёсаки, Асами Симода, Даисукэ Оно, Мамору Мияно, Нана Мидзуки, Сидзука Ито
О фильме: Коноха Иноэ на первый взгляд обыкновенный ученик 2 класса старшей школы. Его жизнь может быть названа совершенно нормальной и ничем не примечательной за исключением того факта, что он автор женского романа, в одночасье ставшего бестселлером. Однако два года назад произошло пришествие, заставившее его бросить писать... В один будний день на школьном дворе он замечает красивую девушку и становится свидетелем того, как она поедает кусочек за кусочком страницы книги, которую читает. Это Токо Амано, старшеклассница на год старше Иноэ. Чтобы Иноэ никому не проболтался об увиденном, Амано заставляет того вступить в литературный клуб. И вскоре Иноэ становится завсегдатаем клуба, каждый день создающим для Амано новые «закуски». Но события двухлетней давности вскоре снова дают о себе знать...

Страна: Япония
Студия: Production I.G
Продолжительность: ~ 01:40:55
Перевод: Дублированный Reanimedia, Любительский многоголосый (OSLIKt, Trina_D, NikaLenina, Chihiro, Kapets) AniDUB, Любительский двухголосый (Eladiel, Lupin) AnimeReactor
Файл
Кодек: H.264
Качество: BDRip 1080p
Видео: 10 bit, ~ 8300 Кбит/с, 1920x1080, 23.976 FPS
Аудио #1: DTS, 6 ch, 1152 Кбит/с - Русский, Reanimedia
Аудио #2: AC3, 2 ch, 320 Кбит/с - Русский, OSLIKt, Trina_D, Nika Lenina, Chihiro, Kapets
Аудио #3: AАС, 2 ch, 385 Кбит/с - Русский, Eladiel, Lupin
Аудио #5: АC3, 3 ch, 640 Кбит/с - Японский
Субтитры: Русские (Dreamers Team)

MediaInfo

G:WorldAnime2010.Gekijouban.Bungaku.Shoujo.BDRip.1080pGekijouban.Bungaku.Shoujo.BDRip.1920x1080.mkv
Format : Matroska
Format version : Version 2
File size : 7.75 GiB
Duration : 1 h 40 min
Overall bit rate : 11.0 Mb/s
Encoded date : UTC 2020-05-07 10:56:01
Writing application : mkvmerge v4.2.0 ('No Talking') сборка от Jul 28 2010 18:38:23
Writing library : libebml v1.0.0 + libmatroska v1.0.0
Attachments : angelina.TTF / ArialRoundedMTStd-Light.otf / Brianne_s_hand.ttf / C019012T.TTF / C019014T.TTF / CRAYA_0.TTF / DK+Crayon+Crumble.ttf / epgyobld_1.ttf / epgyosho_1.ttf / epkaisho_1.ttf / epminbld_3.ttf / fansubBlock_1.ttf / FootlightMTStd-Bold.otf / FootlightMTStd-Regular.otf / HeiseiMinStd-W3.otf / HeiseiMinStd-W7.otf / JennaSue.ttf / KGSevenSixteen.ttf / Kingthings Serifique.ttf
Video
ID : 1
Format : AVC
Format/Info : Advanced Video Codec
Format profile : High 10@L4
Format settings : CABAC / 4 Ref Frames
Format settings, CABAC : Yes
Format settings, ReFrames : 4 frames
Muxing mode : Header stripping
Codec ID : V_MPEG4/ISO/AVC
Duration : 1 h 40 min
Width : 1 920 pixels
Height : 1 080 pixels
Display aspect ratio : 16:9
Frame rate mode : Constant
Frame rate : 23.976 (24000/1001) FPS
Color space : YUV
Chroma subsampling : 4:2:0
Bit depth : 10 bits
Scan type : Progressive
Title : Gekijouban Bungaku Shoujo
Writing library : x264 core 140 r2377+40 929f149 tMod [10-bit@all X86_64]
Encoding settings : cabac=1 / ref=4 / deblock=1:-2:-2 / analyse=0x3:0x133 / me=umh / subme=10 / psy=1 / fade_compensate=0.80 / psy_rd=0.80:0.10 / mixed_ref=1 / me_range=32 / chroma_me=1 / trellis=2 / 8x8dct=1 / cqm=0 / deadzone=21,11 / fast_pskip=0 / chroma_qp_offset=-3 / threads=9 / lookahead_threads=1 / sliced_threads=0 / nr=0 / decimate=0 / interlaced=0 / bluray_compat=0 / constrained_intra=0 / fgo=0 / bframes=8 / b_pyramid=2 / b_adapt=2 / b_bias=0 / direct=3 / weightb=1 / open_gop=0 / weightp=2 / keyint=250 / keyint_min=23 / scenecut=40 / intra_refresh=0 / rc_lookahead=80 / rc=crf / mbtree=1 / crf=16.0000 / qcomp=0.80 / qpmin=0:0:0 / qpmax=42:42:42 / qpstep=4 / ip_ratio=1.40 / aq=3:0.80 / aq-sensitivity=10.00 / aq-factor=1.00:1.00:1.00 / aq2=0 / aq3=0
Default : Yes
Forced : No
Color range : Limited
Matrix coefficients : BT.709
Audio #1
ID : 2
Format : DTS
Format/Info : Digital Theater Systems
Muxing mode : Header stripping
Codec ID : A_DTS
Duration : 1 h 40 min
Bit rate mode : Constant
Bit rate : 1 152 kb/s
Channel(s) : 6 channels
Channel positions : Front: L C R, Side: L R, LFE
Sampling rate : 48.0 kHz
Frame rate : 93.750 FPS (512 SPF)
Bit depth : 24 bits
Compression mode : Lossy
Stream size : 832 MiB (10%)
Title : Дубляж (Реанимедия)
Language : Russian
Default : No
Forced : No
Audio #2
ID : 3
Format : AC-3
Format/Info : Audio Coding 3
Muxing mode : Header stripping
Codec ID : A_AC3
Duration : 1 h 40 min
Bit rate mode : Constant
Bit rate : 320 kb/s
Channel(s) : 2 channels
Channel positions : Front: L R
Sampling rate : 48.0 kHz
Frame rate : 31.250 FPS (1536 SPF)
Bit depth : 16 bits
Compression mode : Lossy
Stream size : 231 MiB (3%)
Title : OSLIKt & Trina_D & NikaLenina & Chihiro & Kapets (Anidub)
Language : Russian
Service kind : Complete Main
Default : No
Forced : No
Audio #3
ID : 4
Format : AAC
Format/Info : Advanced Audio Codec
Format profile : LC
Codec ID : A_AAC-2
Duration : 1 h 40 min
Channel(s) : 2 channels
Channel positions : Front: L R
Sampling rate : 48.0 kHz
Frame rate : 46.875 FPS (1024 SPF)
Compression mode : Lossy
Title : Zendos & Eladiel (Anilibria)
Language : Russian
Default : No
Forced : No
Audio #4
ID : 5
Format : AC-3
Format/Info : Audio Coding 3
Muxing mode : Header stripping
Codec ID : A_AC3
Duration : 1 h 40 min
Bit rate mode : Constant
Bit rate : 640 kb/s
Channel(s) : 3 channels
Channel positions : Front: L C R
Sampling rate : 48.0 kHz
Frame rate : 31.250 FPS (1536 SPF)
Bit depth : 16 bits
Compression mode : Lossy
Stream size : 462 MiB (6%)
Title : Jpn - 3.0 (AC3)
Language : Japanese
Service kind : Complete Main
Default : Yes
Forced : No
-Релиз от: Golo [img]https://a.Radikal больше не существует. Перезалейте изображение на другой хостинг!/a01/2005/cd/2d2ef92d9fba.gif[/img] [img]https://d.Radikal больше не существует. Перезалейте изображение на другой хостинг!/d04/2005/5e/e073a70cd169.gif[/img]
AdGuard VPN - бесплатный, надёжный и быстрый VPN
[korsars.pro].t35685.torrent 
Торрент: Зарегистрирован [ 2021-02-06 17:00 ] · B6E038F65F557FC52A5F46AA6869F2E13586F682

Скачать .torrent

Размер .torrent файла 79 KB

Статус: проверено
.torrent скачан: 13 раз
Размер: 7,75 GB
Правила
Rentgen(07-Фев-21)

Вы не зарегистрированы на нашем сайте. Вам доступна для скачивания только часть контента. Чтобы увидеть весь контент сайта, пожалуйста, зарегистрируйтесь.

Дешевый и быстрый Сидбокс
У Вас отключен VIP статус, поэтому Вам показывается реклама на сайте. Вы можете поддержать наш ресурс и приобрести VIP статус, тем самым отключив показ рекламы на сайте, а ещё VIP пользователи получают 15 инвайтов, которыми можно поделиться с друзьями или знакомыми.
Дешевый и быстрый Сидбокс
ЗДЕСЬ МОГЛА БЫТЬ ВАША РЕКЛАМА! По вопросам размещения рекламы на сайте, пишите на E-mail: admin[собачка]korsars.pro
[Профиль] [ЛС]
Показать сообщения:    
Ответить на тему

Текущее время: 24-Мар 08:02

Часовой пояс: UTC + 4



Вы не можете начинать темы
Вы не можете отвечать на сообщения
Вы не можете редактировать свои сообщения
Вы не можете удалять свои сообщения
Вы не можете голосовать в опросах
Вы не можете прикреплять файлы к сообщениям
Вы можете скачивать файлы
Анализ сайта korsars.pro Яндекс.Метрика