Рождественский 24-морковный спецвыпуск Багза Банни / Bugs Bunny's 24-Carrot Christmas (2020) WEB-DLRip 1080p | Flarrow Films

Ответить на тему
Статистика раздачи [Обновить пиров]
Размер:  2 GB   |    Зарегистрирован:  24 дня   |    .torrent скачан:  8 раз
Раздают:  15  [  0 KB/s  ]   Качают:  4  [  0 KB/s  ]   Подробная статистика пиров
 
   
 
 
Автор Сообщение

flarrowfilms ®

Оффлайн

Медали
VIPДруг трекераСупер Мега Контер Квейк


Пол: Не указан

Стаж: 10 месяцев

Наличие запрета:

Сообщений: 67

Отдача: 5 Mb/s

Загрузка: 5 Mb/s

Нажми


Скачать Adguard бесплатно

Создавать темы 31-Дек-2020 10:39

[Цитировать]

Информация о фильме
Название: Рождественский 24-морковный спецвыпуск Багза Банни
Оригинальное название: Bugs Bunny's 24-Carrot Christmas
Год выхода: 2020
Жанр: мультфильм, короткометражка, комедия, приключения, семейный
Режиссер: Питер Браунгардт, Дэвид Геммелл
В ролях: Эрик Бауза, Джефф Бергман, Боб Берген, Фред Таташиор, Кэнди Мило, Том Кенни, Стивен Блум, Рэйчел Батера, Кари Уолгрен
О фильме:
Окунитесь в незабываемое путешествие на серверный полюс вместе с Порки и Даффи в секретной миссией "спасти Рождество." Не пропустите праздничную распродажу во время охоты за сделкой бабушки и Твити. А также битву в снежки, которая перерастет в величайшую холодную войну, между враждующими соседями Багз Банни и Элмером Фаддом. Позвольте Луни Тюнз открыть для вас праздничный сезон с такими героями как Таз, Хитрый Койот и Дорожный Бегун.

Страна: США
Продолжительность: 00:28:08
Перевод: Профессиональный (многоголосый, закадровый) | Flarrow Films
Роли озвучивали: Ахилл Намазов, Евгений Леонов, Денис Кузьмичёв, Константин Федосеев, Глеб Петров, Маргарита Щелкунова, Екатерина Муравицкая, Антон Макаров, Алексей Ядренников и Андрей Маслов
Файл
Формат: MKV
Кодек: MPEG-4 AVC
Качество: WEB-DLRip 1080p (локализованный видеоряд)
Видео: 1920х1080, ~ 9 869 kb/s, 29.970, 8 bits
Звук: AC-3, 320 kb/s, 2 channels, 48.0 kHz
Субтитры: русские (отключаемые)-

MediaInfo

General
Unique ID : 77496413829068206302629193964924318296 (0x3A4D4432A21F9057283D782FBEDA3258)
Complete name : C:\Flarrow\Bugs Bunny's 24-Carrot Holiday Special 1080p Flarrow Films.mkv
Format : Matroska
Format version : Version 4
File size : 2.00 GiB
Duration : 28 min 8 s
Overall bit rate mode : Variable
Overall bit rate : 10.2 Mb/s
Encoded date : UTC 2020-12-30 08:16:30
Writing application : mkvmerge v32.0.0 ('Astral Progressions') 64-bit
Writing library : libebml v1.3.7 + libmatroska v1.5.0
Video
ID : 1
Format : AVC
Format/Info : Advanced Video Codec
Format profile : Main@L4.1
Format settings : CABAC / 2 Ref Frames
Format settings, CABAC : Yes
Format settings, Reference : 2 frames
Format settings, GOP : M=3, N=29
Codec ID : V_MPEG4/ISO/AVC
Duration : 28 min 7 s
Bit rate mode : Variable
Bit rate : 9 869 kb/s
Maximum bit rate : 12.0 Mb/s
Width : 1 920 pixels
Height : 1 080 pixels
Display aspect ratio : 16:9
Frame rate mode : Constant
Frame rate : 29.970 (30000/1001) FPS
Color space : YUV
Chroma subsampling : 4:2:0
Bit depth : 8 bits
Scan type : Progressive
Bits/(Pixel*Frame) : 0.159
Stream size : 1.94 GiB (97%)
Language : Russian
Default : Yes
Forced : No
Audio
ID : 2
Format : AC-3
Format/Info : Audio Coding 3
Commercial name : Dolby Digital
Codec ID : A_AC3
Duration : 28 min 8 s
Bit rate mode : Constant
Bit rate : 320 kb/s
Channel(s) : 2 channels
Channel layout : L R
Sampling rate : 48.0 kHz
Frame rate : 31.250 FPS (1536 SPF)
Compression mode : Lossy
Stream size : 64.4 MiB (3%)
Language : Russian
Service kind : Complete Main
Default : Yes
Forced : No
Text
ID : 3
Format : UTF-8
Codec ID : S_TEXT/UTF8
Codec ID/Info : UTF-8 Plain Text
Duration : 26 min 59 s
Bit rate : 79 b/s
Count of elements : 322
Stream size : 15.8 KiB (0%)
Language : Russian
Default : Yes
Forced : No
--Релиз от: Flarrow Films
Примечание: Без интро Flarrow Films- -
[korsars.pro].t34760.torrent 
Торрент: Зарегистрирован [ 2020-12-31 10:39 ] · E082CD5F1DFC382FEAB1BBA70E6DB50DFFFBB8AB

Скачать .torrent

Размер .torrent файла 10 KB

Статус: проверено
.torrent скачан: 8 раз
Размер: 2 GB
Правила
shura(31-Дек-20)
Похожие темы

[Профиль] [ЛС]
Показать сообщения:    
Ответить на тему

Текущее время: 25-Янв 05:43

Часовой пояс: UTC + 4



Вы не можете начинать темы
Вы не можете отвечать на сообщения
Вы не можете редактировать свои сообщения
Вы не можете удалять свои сообщения
Вы не можете голосовать в опросах
Вы не можете прикреплять файлы к сообщениям
Вы можете скачивать файлы
Анализ сайта korsars.pro Яндекс.Метрика