ЛЕГО Звездные войны: Праздничный спецвыпуск / The Lego Star Wars Holiday Special (2020) WEB-DLRip 1080p | Flarrow Films

Ответить на тему
Статистика раздачи [Обновить пиров]
Размер:  3,21 GB   |    Зарегистрирован:  2 месяца 7 дней   |    .torrent скачан:  7 раз
Раздают:  37  [  0 KB/s  ]   Качают:  1  [  0 KB/s  ]   Подробная статистика пиров
 
   
 
 
Автор Сообщение

flarrowfilms ®

Оффлайн

Медали
VIPДруг трекераСупер Мега Контер Квейк


Пол: Не указан

Стаж: 11 месяцев 13 дней

Наличие запрета:

Сообщений: 71

Отдача: 5 Mb/s

Загрузка: 5 Mb/s

Нажми


Скачать Adguard бесплатно

Создавать темы 30-Дек-2020 23:50

[Цитировать]

Информация о фильме
Название: ЛЕГО Звездные войны: Праздничный спецвыпуск
Оригинальное название: The Lego Star Wars Holiday Special
Год выхода: 2020
Жанр: мультфильм, фантастика, боевик, триллер, криминал, приключения, семейный
Режиссер: Кен Каннингэм
В ролях: Мэтт Лантер, Келли Мари Трэн, Ди Брэдли Бейкер, Билли Ди Уильямс, Джеймс Арнольд Тейлор, Энтони Дэниелс, Том Кэйн
О фильме:
В спецвыпуске Рей, Финн, По, Чуи, Роуз и дроиды воссоединятся на экране для празднования Дня жизни. Чтобы лучше познать силу, Рей вместе с BB-8 прилетает в таинственный храм джедаев, откуда с помощью загадочного артефакта отправляется в приключение по любимым моментам франшизы. Она встретится с Люком Скайуокером, Дартом Вейдером, Йодой, Оби-Ваном и другими знаковыми героями и злодеями.

Страна: США
Продолжительность: 00:44:57
Перевод: Профессиональный (многоголосый, закадровый) | Flarrow Films
Роли озвучивали: Анастасия Скачкова, Дмитрий Кравченко, Ахилл Намазов, Виталий Кашеваров, Семён Евсиков, Александр Ганс, Андрей Маслов, Денис Кузьмичёв, Евгений Леонов, Юрий Катарманов и Рина Чернышова
Файл
Формат: MKV
Кодек: MPEG-4 AVC
Качество: WEB-DLRip 1080p (локализованный видеоряд)
Видео: 1920х1080, ~ 9 911 kb/s, 23.976, 8 bits
Звук: AC-3, 320 kb/s, 2 channels, 48.0 kHz
Субтитры: русские (отключаемые)-

MediaInfo

General
Unique ID : 258814640627833765672630442855297670710 (0xC2B5E2FB0ABF41E8673720428CD35E36)
Complete name : C:\Flarrow\The.Lego.Star.Wars.Holiday.Special.2020.1080p.Flarrow.Films.mkv
Format : Matroska
Format version : Version 4
File size : 3.21 GiB
Duration : 44 min 57 s
Overall bit rate mode : Variable
Overall bit rate : 10.2 Mb/s
Encoded date : UTC 2020-12-30 18:16:32
Writing application : mkvmerge v32.0.0 ('Astral Progressions') 64-bit
Writing library : libebml v1.3.7 + libmatroska v1.5.0
Video
ID : 1
Format : AVC
Format/Info : Advanced Video Codec
Format profile : Main@L4.1
Format settings : CABAC / 2 Ref Frames
Format settings, CABAC : Yes
Format settings, Reference : 2 frames
Format settings, GOP : M=3, N=23
Codec ID : V_MPEG4/ISO/AVC
Duration : 44 min 57 s
Bit rate mode : Variable
Bit rate : 9 911 kb/s
Maximum bit rate : 12.0 Mb/s
Width : 1 920 pixels
Height : 1 080 pixels
Display aspect ratio : 16:9
Frame rate mode : Constant
Frame rate : 23.976 (24000/1001) FPS
Color space : YUV
Chroma subsampling : 4:2:0
Bit depth : 8 bits
Scan type : Progressive
Bits/(Pixel*Frame) : 0.199
Stream size : 3.11 GiB (97%)
Language : Russian
Default : Yes
Forced : No
Audio
ID : 2
Format : AC-3
Format/Info : Audio Coding 3
Commercial name : Dolby Digital
Codec ID : A_AC3
Duration : 44 min 57 s
Bit rate mode : Constant
Bit rate : 320 kb/s
Channel(s) : 2 channels
Channel layout : L R
Sampling rate : 48.0 kHz
Frame rate : 31.250 FPS (1536 SPF)
Compression mode : Lossy
Stream size : 103 MiB (3%)
Language : Russian
Service kind : Complete Main
Default : Yes
Forced : No
Text
ID : 3
Format : UTF-8
Codec ID : S_TEXT/UTF8
Codec ID/Info : UTF-8 Plain Text
Duration : 43 min 56 s
Bit rate : 101 b/s
Count of elements : 635
Stream size : 32.7 KiB (0%)
Language : Russian
Default : Yes
Forced : No
--Релиз от: Flarrow Films
Примечание: Без интро Flarrow Films- -

[korsars.pro].t34748.torrent 
Торрент: Зарегистрирован [ 2020-12-30 23:50 ] · FCB28DE4767DD083324D12EE417A14DA9669493E

Скачать .torrent

Размер .torrent файла 16 KB

Статус: проверено
.torrent скачан: 7 раз
Размер: 3,21 GB
Правила
shura(31-Дек-20), Suspect(05-Янв-21)
Похожие темы

Вы не зарегистрированы на нашем сайте. Вам доступна для скачивания только часть контента. Чтобы увидеть весь контент сайта, пожалуйста, зарегистрироруйтесь.

У Вас отключен VIP статус, поэтому Вам показывается реклама на сайте. Вы можете поддержать наш ресурс и приобрести VIP статус, тем самым отключив показ рекламы на сайте, а ещё VIP пользователи получают возможность

смотреть фильмы, сериалы и аниме онлайн в HD качестве

(не распространяется на раздел Flarrow Films), а так же получить 5 инвайтов, которыми можно поделиться с друзьями или знакомыми.
[Профиль] [ЛС]
Показать сообщения:    
Ответить на тему

Текущее время: 07-Мар 18:06

Часовой пояс: UTC + 4



Вы не можете начинать темы
Вы не можете отвечать на сообщения
Вы не можете редактировать свои сообщения
Вы не можете удалять свои сообщения
Вы не можете голосовать в опросах
Вы не можете прикреплять файлы к сообщениям
Вы можете скачивать файлы
Анализ сайта korsars.pro Яндекс.Метрика