Бэтмен и Харли Квинн / Batman and Harley Quinn (2017) HDRip 1080p | Flarrow Films

Ответить на тему
Статистика раздачи [Обновить пиров]
Размер:  1,14 GB   |    Зарегистрирован:  5 месяцев 26 дней   |    .torrent скачан:  6 раз
Раздают:  6  [  0 KB/s  ]   Качают:  1  [  0 KB/s  ]   Подробная статистика пиров
 
   
 
 
Автор Сообщение

flarrowfilms ®

Оффлайн

Медали
VIPДруг трекераСупер Мега Контер Квейк


Пол: Не указан

Стаж: 1 год 2 месяца

Наличие запрета:

Сообщений: 85

Отдача: 5 Mb/s

Загрузка: 5 Mb/s

Нажми


Скачать Adguard бесплатно

Создавать темы 23-Дек-2020 23:28

[Цитировать]

Информация о фильме
Название: Бэтмен и Харли Квинн
Оригинальное название: Batman and Harley Quinn
Год выхода: 2017
Жанр: мультфильм, фантастика, фэнтези, боевик, комедия, приключения
Режиссер: Сэм Лью
В ролях: Кевин Конрой, Мелисса Рауш, Пэйджет Брюстер, Лорен Лестер, Кевин Майкл Ричардсон, Эрик Бауза, Тревор Дивэлл, Джон Ди Маджио, Робин Аткин Даунс, Роб Полсен
О фильме:
Бэтмен и Найтвинг объединяются с Харли Квинн, чтобы остановить Ядовитого Плюща и Доктора Джейсона Вудроу от уничтожения планеты. Надвигающаяся глобальная катастрофа заставляет Бэтмена и Найтвинга заручиться поддержкой неожиданного партнера. Ядовитый Плющ и Джейсон Вудроу (Флороник Мен) затевают операцию по экологическому спасению планеты, но большей части человечества нет места в их плане. Чтобы спасти человечество и поймать Ядовитый Плющ, Бэтмен и Найтвинг вынуждены объединиться с Харли Квинн. Но на пути к нелегкой цели терпение Бэтмена будет ни раз подвергнуто суровому испытанию выходками непредсказуемой и ненадежной Харли.

Страна: США
Продолжительность: 01:14:13
Перевод: Профессиональный (многоголосый, закадровый) | Flarrow Films
Роли озвучивали: Антон Алёхин, Ахилл Намазов, Алексей Ядренников, Денис Кузьмичёв, Дмитрий Мальков, Рута Новикова, Рина Чернышова, Виталий Кашеваров, Алина Лихачёва и Семён Евсиков.
Файл
Формат: MKV
Кодек: MPEG-4 AVC
Качество: HDRip 1080p
Видео: 1920х1080, ~ 1 877 kb/s, 23.976, 8 bits
Звук: AC-3, 320 kb/s, 2 channels, 48.0 kHz
Субтитры: русские (хардсаб на песни), русские (в составе контейнера, отключаемые)-

MediaInfo

General
Unique ID : 306830071926197800766305100009591779247 (0xE6D552849EA1D640F8E87D6E02E7AFAF)
Complete name : C:\Flarrow\Batman.and.Harley.Quinn.1080p.Flarrow.Films.mkv
Format : Matroska
Format version : Version 4
File size : 1.14 GiB
Duration : 1 h 14 min
Overall bit rate : 2 199 kb/s
Encoded date : UTC 2020-12-23 18:26:38
Writing application : mkvmerge v32.0.0 ('Astral Progressions') 64-bit
Writing library : libebml v1.3.7 + libmatroska v1.5.0
Video
ID : 1
Format : AVC
Format/Info : Advanced Video Codec
Format profile : High@L4.1
Format settings : CABAC / 4 Ref Frames
Format settings, CABAC : Yes
Format settings, Reference : 4 frames
Codec ID : V_MPEG4/ISO/AVC
Duration : 1 h 14 min
Bit rate : 1 877 kb/s
Width : 1 920 pixels
Height : 1 080 pixels
Display aspect ratio : 16:9
Frame rate mode : Constant
Frame rate : 23.976 (24000/1001) FPS
Color space : YUV
Chroma subsampling : 4:2:0
Bit depth : 8 bits
Scan type : Progressive
Bits/(Pixel*Frame) : 0.038
Stream size : 997 MiB (85%)
Writing library : x264 core 146 r2538 121396c
Encoding settings : cabac=1 / ref=4 / deblock=1:1:1 / analyse=0x3:0x113 / me=hex / subme=6 / psy=1 / psy_rd=0.40:0.00 / mixed_ref=1 / me_range=16 / chroma_me=1 / trellis=1 / 8x8dct=1 / cqm=0 / deadzone=21,11 / fast_pskip=1 / chroma_qp_offset=-2 / threads=6 / lookahead_threads=1 / sliced_threads=0 / nr=0 / decimate=1 / interlaced=0 / bluray_compat=0 / constrained_intra=0 / bframes=5 / b_pyramid=2 / b_adapt=1 / b_bias=0 / direct=1 / weightb=1 / open_gop=0 / weightp=1 / keyint=250 / keyint_min=23 / scenecut=40 / intra_refresh=0 / rc_lookahead=30 / rc=crf / mbtree=1 / crf=19.0 / qcomp=0.60 / qpmin=0 / qpmax=69 / qpstep=4 / ip_ratio=1.40 / aq=1:0.60
Language : Russian
Default : Yes
Forced : No
Audio
ID : 2
Format : AC-3
Format/Info : Audio Coding 3
Commercial name : Dolby Digital
Codec ID : A_AC3
Duration : 1 h 14 min
Bit rate mode : Constant
Bit rate : 320 kb/s
Channel(s) : 2 channels
Channel layout : L R
Sampling rate : 44.1 kHz
Frame rate : 28.711 FPS (1536 SPF)
Compression mode : Lossy
Stream size : 170 MiB (15%)
Language : Russian
Service kind : Complete Main
Default : Yes
Forced : No
Text
ID : 3
Format : UTF-8
Codec ID : S_TEXT/UTF8
Codec ID/Info : UTF-8 Plain Text
Duration : 1 h 13 min
Bit rate : 99 b/s
Count of elements : 989
Stream size : 53.4 KiB (0%)
Language : Russian
Default : Yes
Forced : No
--Релиз от: Flarrow Films
Примечание: Без интро Flarrow Films- -
[korsars.pro].t34549.torrent 
Торрент: Зарегистрирован [ 2020-12-23 23:28 ] · 3FE1395887245770B454A35978C1F27B3773C772

Скачать .torrent

Размер .torrent файла 12 KB

Статус: проверено
.torrent скачан: 6 раз
Размер: 1,14 GB
Правила
Похожие темы

Вы не зарегистрированы на нашем сайте. Вам доступна для скачивания только часть контента. Чтобы увидеть весь контент сайта, пожалуйста, зарегистрироруйтесь.

Дешевый и быстрый Сидбокс

Ключи и пин-коды

Игры, Кредитные карты, IP-телефония, Интернет провайдеры, Мобильная связь, Спутниковое ТВ

Электронные книги

Бизнес и экономика, Дом, быт, семья, досуг, Санкт-Петербург, Компьютеры и интернет, Наука и образование, Техническая литература, Юридическая литература

Цифровые товары

iTunes & App Store, Базы данных, Дизайн, Доступ к ресурсам, Kарты продления, ключи, Фотографии, Шаблоны для сайтов

Программное обеспечение

Безопасность, Игры, PC, Интернет, Мобильная связь, Программирование, Продвижение сайтов (SEO), Утилиты
У Вас отключен VIP статус, поэтому Вам показывается реклама на сайте. Вы можете поддержать наш ресурс и приобрести VIP статус, тем самым отключив показ рекламы на сайте, а ещё VIP пользователи получают возможность

смотреть аниме онлайн в HD качестве

(не распространяется на раздел Flarrow Films), а так же получить 5 инвайтов, которыми можно поделиться с друзьями или знакомыми.
Дешевый и быстрый Сидбокс

Ключи и пин-коды

Игры, Кредитные карты, IP-телефония, Интернет провайдеры, Мобильная связь, Спутниковое ТВ

Электронные книги

Бизнес и экономика, Дом, быт, семья, досуг, Санкт-Петербург, Компьютеры и интернет, Наука и образование, Техническая литература, Юридическая литература

Цифровые товары

iTunes & App Store, Базы данных, Дизайн, Доступ к ресурсам, Kарты продления, ключи, Фотографии, Шаблоны для сайтов

Программное обеспечение

Безопасность, Игры, PC, Интернет, Мобильная связь, Программирование, Продвижение сайтов (SEO), Утилиты
[Профиль] [ЛС]
Показать сообщения:    
Ответить на тему

Текущее время: 19-Июн 20:05

Часовой пояс: UTC + 4



Вы не можете начинать темы
Вы не можете отвечать на сообщения
Вы не можете редактировать свои сообщения
Вы не можете удалять свои сообщения
Вы не можете голосовать в опросах
Вы не можете прикреплять файлы к сообщениям
Вы можете скачивать файлы
Анализ сайта korsars.pro Яндекс.Метрика