Агенты Щ.И.Т.: Йо-йо / Agents of S.H.I.E.L.D.: Slingshot [S01] (2016) WEB-DLRip 1080p | D | Flarrow Films

Ответить на тему
Статистика раздачи [Обновить пиров]
Размер:  2,16 GB   |    Зарегистрирован:  1 месяц 21 день   |    .torrent скачан:  7 раз
Раздают:  4  [  0 KB/s  ]   Качают:  4  [  0 KB/s  ]   Подробная статистика пиров
 
   
 
 
Автор Сообщение

flarrowfilms ®

Оффлайн

Медали
VIPДруг трекераСупер Мега Контер Квейк


Пол: Не указан

Стаж: 10 месяцев

Наличие запрета:

Сообщений: 67

Отдача: 5 Mb/s

Загрузка: 5 Mb/s

Нажми


Скачать Adguard бесплатно

Создавать темы 03-Дек-2020 15:56

[Цитировать]

Информация о фильме
Название: Агенты «Щ.И.Т.»: Йо-йо
Оригинальное название: Agents of S.H.I.E.L.D.: Slingshot
Год выхода: 2016
Жанр: фантастика, боевик, драма, детектив, приключения
Режиссер: Крис Шерами, Джон П. Гордон, Mark Kolpack
В ролях: Наталия Кордова-Бакли, Янси Ариас, Хлоя Беннет, Хироо Минами, Минг-На, Дэйл Павински, Мэтт Бербери, Кларк Грегг, Йен де Кестекер, Джейсон О'Мара
О фильме:
Сериал вращается вокруг миссии Родригес до событий четвертого сезона «Агентов Щ.И.Т.».
В центре сюжета оказывается Елена Родригес, также известная как Йо-Йо, – нелюдь, обладающая невероятной скоростью, которая считает, что подписание Акта Соковии – это в первую очередь существенное ограничение свободы, ведь использование сверхспособностей в той или иной ситуации является личным решением того, кто ими обладает.

Страна: США
Продолжительность: 00:05:06 (серия)
Перевод: Дублированный (профессиональный) | Flarrow Films
Роли озвучивали: Алёна Соколова, Маргарита Щелкунова, Лена Лунина, Ахилл Намазов, Андрей Маслов, Рина Чернышова, Денис Кузьмичёв, Алексей Ядренников, Дмитрий Мальков и Семён Евсиков
Файл
Формат: MKV
Кодек: MPEG-4 AVC
Качество: WEB-DLRip 1080p (локализованный видеоряд)
Видео: 1920х1080, ~ 15.0 Mb/s, 29.970, 8 bits
Звук: AAC LC, 288 kb/s, 2 channels, 48.0 kHz
Субтитры: русские (отключаемые UTF-8)-

MediaInfo

General
Unique ID : 172978362413443891191015019696607868570 (0x82226BB8E9F422F26CDE15B7BE6E369A)
Complete name : C:\Flarrow\Agents of S.H.I.E.L.D. Slingshot.S01.1080p.D.Flarrow.Films\Agents of S.H.I.E.L.D. Slingshot 01.mkv
Format : Matroska
Format version : Version 4
File size : 559 MiB
Duration : 5 min 6 s
Overall bit rate mode : Variable
Overall bit rate : 15.3 Mb/s
Encoded date : UTC 2020-10-07 06:36:46
Writing application : mkvmerge v32.0.0 ('Astral Progressions') 64-bit
Writing library : libebml v1.3.7 + libmatroska v1.5.0
Video
ID : 1
Format : AVC
Format/Info : Advanced Video Codec
Format profile : Main@L4.1
Format settings : CABAC / 2 Ref Frames
Format settings, CABAC : Yes
Format settings, Reference : 2 frames
Format settings, GOP : M=3, N=29
Codec ID : V_MPEG4/ISO/AVC
Duration : 5 min 6 s
Bit rate mode : Variable
Bit rate : 15.0 Mb/s
Maximum bit rate : 23.0 Mb/s
Width : 1 920 pixels
Height : 1 080 pixels
Display aspect ratio : 16:9
Frame rate mode : Constant
Frame rate : 29.970 (30000/1001) FPS
Color space : YUV
Chroma subsampling : 4:2:0
Bit depth : 8 bits
Scan type : Progressive
Bits/(Pixel*Frame) : 0.242
Stream size : 548 MiB (98%)
Language : Russian
Default : Yes
Forced : No
Audio
ID : 2
Format : AAC LC
Format/Info : Advanced Audio Codec Low Complexity
Codec ID : A_AAC-2
Duration : 5 min 6 s
Bit rate : 288 kb/s
Channel(s) : 2 channels
Channel layout : L R
Sampling rate : 48.0 kHz
Frame rate : 46.875 FPS (1024 SPF)
Compression mode : Lossy
Stream size : 10.7 MiB (2%)
Language : Russian
Default : Yes
Forced : No
Text
ID : 3
Format : UTF-8
Codec ID : S_TEXT/UTF8
Codec ID/Info : UTF-8 Plain Text
Duration : 4 min 9 s
Bit rate : 121 b/s
Count of elements : 74
Stream size : 3.71 KiB (0%)
Language : Russian
Default : Yes
Forced : No
--Релиз от: Flarrow Films
Примечание: Без интро Flarrow Films- -
[korsars.pro].t33960.torrent 
Торрент: Зарегистрирован [ 2020-12-03 15:56 ] · D2152181118C5DE6C375F2C335EF472652CF4906

Скачать .torrent

Размер .torrent файла 11 KB

Статус: проверено
.torrent скачан: 7 раз
Размер: 2,16 GB
Правила
Похожие темы

[Профиль] [ЛС]
Показать сообщения:    
Ответить на тему

Текущее время: 25-Янв 04:55

Часовой пояс: UTC + 4



Вы не можете начинать темы
Вы не можете отвечать на сообщения
Вы не можете редактировать свои сообщения
Вы не можете удалять свои сообщения
Вы не можете голосовать в опросах
Вы не можете прикреплять файлы к сообщениям
Вы можете скачивать файлы
Анализ сайта korsars.pro Яндекс.Метрика