Аватар короля / Quan Zhi Gao Shou / The King's Avatar [S01] (2017) WEBRip 1080p от Fortuna.TV | СВ-Дубль (IVI)

Ответить на тему
Статистика раздачи [Обновить пиров]
Размер:  10,69 GB   |    Зарегистрирован:  1 год   |    .torrent скачан:  32 раза
Раздают:  8  [  0 KB/s  ]   Качают:  5  [  0 KB/s  ]   Подробная статистика пиров
 
   
 
 
Автор Сообщение

loe3df ®

Оффлайн

Медали
VIPАктивный раздающий 1Активный раздающий 2Активный релизер Аниме (100)
Активный релизер Аниме (50)Орденосец 1 степени


Пол: Не указан

Стаж: 1 год 10 месяцев

Наличие запрета:

Сообщений: 452

Откуда: Die Welt von Hentai

Отдача: не определено

Загрузка: не определено

Нажми


Скачать Adguard бесплатно

Создавать темы 19-Ноя-2020 18:45

[Цитировать]

Аватар короля / Quan Zhi Gao Shou / The King's Avatar- Год выпуска: 2017
Страна: Китай
Жанр: экшен, игры, исекай
Продолжительность: ~ 00:25:00 (серия)
Перевод: Профессиональный (многоголосый, закадровый) | СВ-Дубль (по заказу МедиаФильм)
Режиссёр: Кэ Сюн
Субтитры: Отсутствуют-Рейтинг:
-Описание:
История Е Сю – профессионального игрока в онлайн-игру «Слава», который работает менеджером в интернет-кафе. Когда «Слава» запускает ещё один сервер, опытный Е Сю погружается в мир игры с огромным желанием победить, многолетним опытом и самодельным оружием…
Е Сю был легендарным игроком в «Славу», но однажды его жизнь круто изменилась. Капитаном гильдии «Великолепная эра» стал Сунь Сяну, а Е Сю выгнали из команды, вынудив отдать его аккаунт «Осенний Лист» новому лидеру. Е Сю устроился на работу ночным менеджером интернет-кафе и оставил свои игровые амбиции в прошлом. На новом месте он подружился с Чен Гуо – владелицей заведения и поклонницей его персонажа в «Славе». Однажды, узнав, что «Слава» запустила десятый сервер, Е Сю решил вернуться в большую игру с новым персонажем, которого он долго и упорно создавал с нуля…
Как сложится дальнейшая игровая карьера героя? Удастся ли ему добиться прежних высот и снова доказать сообществу геймеров, что он – лучший? Приглашаем вас посмотреть онлайн китайское аниме «Аватар короля».. © IVI-Качество: WEBRip 1080p (IVI)
Формат: MKV (MPEG-4 AVC)
Видео: 1920x1080, ~ 5 120 kb/s, 25.000 FPS. 8 bits
Аудио RUS: AAC LC, ~ 256 kb/s, 2 channels, 48.0 kHz-

Скриншоты

MediaInfo

Unique ID : 323769451758037934483933196984287268958 (0xF393BA6CBF83C2FC8736B72D8454905E)
Complete name : [FortunaTV] Quan Zhi Gao Shou (WEBRip) (1080p) (RUS)\[FortunaTV] Quan zhi gao shou S1 - 01 (WEBRip 1920x1080 x264 AAC Rus).mkv
Format : Matroska
Format version : Version 4
File size : 962 MiB
Duration : 25 min 0 s
Overall bit rate : 5 375 kb/s
Encoded date : UTC 2020-11-19 14:20:49
Writing application : mkvmerge v39.0.0 ('In The Waiting Line') 64-bit
Writing library : libebml v1.3.9 + libmatroska v1.5.2
Video
ID : 1
Format : AVC
Format/Info : Advanced Video Codec
Format profile : High@L4
Format settings : CABAC / 4 Ref Frames
Format settings, CABAC : Yes
Format settings, Reference frames : 4 frames
Codec ID : V_MPEG4/ISO/AVC
Duration : 25 min 0 s
Bit rate : 5 120 kb/s
Width : 1 920 pixels
Height : 1 080 pixels
Display aspect ratio : 16:9
Frame rate mode : Constant
Frame rate : 25.000 FPS
Color space : YUV
Chroma subsampling : 4:2:0
Bit depth : 8 bits
Scan type : Progressive
Bits/(Pixel*Frame) : 0.099
Stream size : 916 MiB (95%)
Title : FortunaTV
Writing library : x264 core 148
Encoding settings : cabac=1 / ref=3 / deblock=1:0:0 / analyse=0x3:0x113 / me=hex / subme=7 / psy=1 / psy_rd=1.00:0.00 / mixed_ref=1 / me_range=16 / chroma_me=1 / trellis=1 / 8x8dct=1 / cqm=0 / deadzone=21,11 / fast_pskip=1 / chroma_qp_offset=-2 / threads=34 / lookahead_threads=5 / sliced_threads=0 / nr=0 / decimate=1 / interlaced=0 / bluray_compat=0 / constrained_intra=0 / bframes=6 / b_pyramid=2 / b_adapt=1 / b_bias=0 / direct=1 / weightb=1 / open_gop=0 / weightp=2 / keyint=50 / keyint_min=26 / scenecut=0 / intra_refresh=0 / rc_lookahead=40 / rc=2pass / mbtree=1 / bitrate=5120 / ratetol=1.0 / qcomp=0.60 / qpmin=0 / qpmax=69 / qpstep=4 / cplxblur=20.0 / qblur=0.5 / vbv_maxrate=7680 / vbv_bufsize=20480 / nal_hrd=none / filler=0 / ip_ratio=1.40 / aq=1:1.00
Default : Yes
Forced : No
Audio
ID : 2
Format : AAC LC
Format/Info : Advanced Audio Codec Low Complexity
Codec ID : A_AAC-2
Duration : 25 min 0 s
Bit rate : 256 kb/s
Channel(s) : 2 channels
Channel layout : L R
Sampling rate : 48.0 kHz
Frame rate : 46.875 FPS (1024 SPF)
Compression mode : Lossy
Stream size : 45.8 MiB (5%)
Language : Russian
Default : Yes
Forced : No
Релиз от: Fortuna.TV-Перезалита 12-я серия, был исправен битрейт у звука.
[korsars.pro].t33605.torrent 
Торрент: Зарегистрирован [ 2020-12-06 16:34 ] · 667B0C4B0BB3ED4CACE4AC9B25DFBEB1749C8A3A

Скачать .torrent

Размер .torrent файла 29 KB

Статус: проверено
.torrent скачан: 32 раз
Размер: 10,69 GB
Правила
daryld(19-Ноя-20), 4udaki(19-Ноя-20), rider42(29-Ноя-20), ivshafr(10-Мар-21)
Похожие темы

Вы не зарегистрированы на нашем сайте. Вам доступна для скачивания только часть контента. Чтобы увидеть весь контент сайта, пожалуйста, зарегистрироруйтесь.

Дешевый и быстрый Сидбокс

Ключи и пин-коды

Игры, Кредитные карты, IP-телефония, Интернет провайдеры, Мобильная связь, Спутниковое ТВ

Электронные книги

Бизнес и экономика, Дом, быт, семья, досуг, Санкт-Петербург, Компьютеры и интернет, Наука и образование, Техническая литература, Юридическая литература

Цифровые товары

iTunes & App Store, Базы данных, Дизайн, Доступ к ресурсам, Kарты продления, ключи, Фотографии, Шаблоны для сайтов

Программное обеспечение

Безопасность, Игры, PC, Интернет, Мобильная связь, Программирование, Продвижение сайтов (SEO), Утилиты
У Вас отключен VIP статус, поэтому Вам показывается реклама на сайте. Вы можете поддержать наш ресурс и приобрести VIP статус, тем самым отключив показ рекламы на сайте, а ещё VIP пользователи получают возможность

смотреть аниме онлайн в HD качестве

(не распространяется на раздел Flarrow Films), а так же получить 5 инвайтов, которыми можно поделиться с друзьями или знакомыми.
Дешевый и быстрый Сидбокс

Ключи и пин-коды

Игры, Кредитные карты, IP-телефония, Интернет провайдеры, Мобильная связь, Спутниковое ТВ

Электронные книги

Бизнес и экономика, Дом, быт, семья, досуг, Санкт-Петербург, Компьютеры и интернет, Наука и образование, Техническая литература, Юридическая литература

Цифровые товары

iTunes & App Store, Базы данных, Дизайн, Доступ к ресурсам, Kарты продления, ключи, Фотографии, Шаблоны для сайтов

Программное обеспечение

Безопасность, Игры, PC, Интернет, Мобильная связь, Программирование, Продвижение сайтов (SEO), Утилиты


Последний раз редактировалось: loe3df (2021-08-21 23:41), всего редактировалось 2 раз(а)
[Профиль] [ЛС]

daryld

Оффлайн

Медали


Пол: Не указан

Стаж: 1 год 2 месяца

Наличие запрета:

Сообщений: 6

Отдача: не определено

Загрузка: не определено

Нажми


Скачать Adguard бесплатно

Создавать темы 19-Ноя-2020 19:11 (спустя 25 минут)

[Цитировать]

Пусть небо дарует вам здоровье!
[Профиль] [ЛС]

4udaki

Оффлайн

Медали


Пол: Мужской

Стаж: 7 лет 1 месяц

Наличие запрета:

Сообщений: 12166

Откуда: korsars.pro

Отдача: 2 Mb/s

Загрузка: 20 Mb/s

Нажми


Скачать Adguard бесплатно

Создавать темы 19-Ноя-2020 20:01 (спустя 49 минут)

[Цитировать]

loe3df, 2-й сезон зальёшь?
[Профиль] [ЛС]

loe3df ®

Оффлайн

Медали
VIPАктивный раздающий 1Активный раздающий 2Активный релизер Аниме (100)
Активный релизер Аниме (50)Орденосец 1 степени


Пол: Не указан

Стаж: 1 год 10 месяцев

Наличие запрета:

Сообщений: 452

Откуда: Die Welt von Hentai

Отдача: не определено

Загрузка: не определено

Нажми


Скачать Adguard бесплатно

Создавать темы 19-Ноя-2020 20:08 (спустя 6 минут)

[Цитировать]

40698loe3df, 2-й сезон зальёшь?
Пока что на IVI, первый сезон.
[Профиль] [ЛС]

4udaki

Оффлайн

Медали


Пол: Мужской

Стаж: 7 лет 1 месяц

Наличие запрета:

Сообщений: 12166

Откуда: korsars.pro

Отдача: 2 Mb/s

Загрузка: 20 Mb/s

Нажми


Скачать Adguard бесплатно

Создавать темы 19-Ноя-2020 20:37 (спустя 29 минут)

[Цитировать]

40699Пока что на IVI, первый сезон.
Понятно. Спасибо.
[Профиль] [ЛС]
Показать сообщения:    
Ответить на тему

Текущее время: 06-Дек 21:41

Часовой пояс: UTC + 4



Вы не можете начинать темы
Вы не можете отвечать на сообщения
Вы не можете редактировать свои сообщения
Вы не можете удалять свои сообщения
Вы не можете голосовать в опросах
Вы не можете прикреплять файлы к сообщениям
Вы можете скачивать файлы
Анализ сайта korsars.pro Яндекс.Метрика