Галерея разбитых сердец / The Broken Hearts Gallery (2020) WEBRip 1080p | Flarrow Films

Ответить на тему
Статистика раздачи [Обновить пиров]
Размер:  5,78 GB   |    Зарегистрирован:  20 дней   |    .torrent скачан:  4 раза
Раздают:  7  [  0 KB/s  ]   Качают:  2  [  0 KB/s  ]   Подробная статистика пиров
 
   
 
 
Автор Сообщение

flarrowfilms ®

Оффлайн

Медали
VIPДруг трекераСупер Мега Контер Квейк


Пол: Не указан

Стаж: 8 месяцев 5 дней

Наличие запрета:

Сообщений: 55

Отдача: 5 Mb/s

Загрузка: 5 Mb/s

Нажми


Скачать Adguard бесплатно

Создавать темы 09-Ноя-2020 18:48

[Цитировать]

Информация о фильме
Название: Галерея разбитых сердец
Оригинальное название: The Broken Hearts Gallery
Год выхода: 2020
Жанр: мелодрама, комедия
Режиссер: Натали Крински
В ролях: Джеральдин Вишванатан, Дэйкер Монтгомери, Уткарш Амбудкар, Молли Гордон, Филлипа Су, Сьюки Уотерхаус, Шейла Маккарти, Бернадетт Питерс, Нэйтан Дэйлз
О фильме:
Люси с трудом забывает о прошлых отношениях, оставляя на память разные сувениры. Однажды она случайно знакомится с Ником, который помогает ей разобраться с прошлым и организовать «Галерею разбитых сердец» — открытое пространство, где каждый желающий может оставить предметы, связанные с неудавшимися отношениями.

Страна: США, Канада
Продолжительность: 01:48:50
Перевод: Профессиональный (многоголосый, закадровый) | Flarrow Films
Роли озвучивали: Рина Чернышова, Денис Кузьмичёв, Лена Лунина, Рута Новикова, Серёжа Пасякин и Семён Евсиков
Файл
Формат: MKV
Кодек: MPEG-4 AVC
Качество: WEBRip 1080
Видео: 1920х1080, ~ 7 287 kb/s, 23.976 FPS, 8 bits
Звук: AC-3, 320 kb/s, 2 channels, 48.0 kHz
Субтитры: русские (отключаемые UTF-8)-

MediaInfo

General
Unique ID : 190266752728922843784749807406566472640 (0x8F240B2CA8C1D90F4BF4DE0B6B79FBC0)
Complete name : C:\Flarrow\The.Broken.Hearts.Gallery.2020.1080p.Flarrow.Films.mkv
Format : Matroska
Format version : Version 4
File size : 5.78 GiB
Duration : 1 h 48 min
Overall bit rate : 7 608 kb/s
Encoded date : UTC 2020-11-09 13:46:24
Writing application : mkvmerge v32.0.0 ('Astral Progressions') 64-bit
Writing library : libebml v1.3.7 + libmatroska v1.5.0
Cover : Yes
Attachments : small_cover_land.jpg / cover.jpg / cover_land.jpg / small_cover.jpg
Video
ID : 1
Format : AVC
Format/Info : Advanced Video Codec
Format profile : High@L4
Format settings : CABAC / 2 Ref Frames
Format settings, CABAC : Yes
Format settings, Reference : 2 frames
Codec ID : V_MPEG4/ISO/AVC
Duration : 1 h 48 min
Bit rate : 7 287 kb/s
Width : 1 920 pixels
Height : 1 080 pixels
Display aspect ratio : 16:9
Frame rate mode : Constant
Frame rate : 23.976 (24000/1001) FPS
Color space : YUV
Chroma subsampling : 4:2:0
Bit depth : 8 bits
Scan type : Progressive
Bits/(Pixel*Frame) : 0.147
Stream size : 5.54 GiB (96%)
Writing library : x264 core 155 r2901 7d0ff22
Language : English
Default : Yes
Forced : No
Color range : Limited
Color primaries : BT.709
Transfer characteristics : BT.709
Matrix coefficients : BT.709
Audio
ID : 2
Format : AC-3
Format/Info : Audio Coding 3
Commercial name : Dolby Digital
Codec ID : A_AC3
Duration : 1 h 48 min
Bit rate mode : Constant
Bit rate : 320 kb/s
Channel(s) : 2 channels
Channel layout : L R
Sampling rate : 48.0 kHz
Frame rate : 31.250 FPS (1536 SPF)
Compression mode : Lossy
Stream size : 249 MiB (4%)
Language : Russian
Service kind : Complete Main
Default : Yes
Forced : No
Text
ID : 3
Format : UTF-8
Codec ID : S_TEXT/UTF8
Codec ID/Info : UTF-8 Plain Text
Duration : 1 h 44 min
Bit rate : 143 b/s
Count of elements : 1778
Stream size : 110 KiB (0%)
Language : Russian
Default : Yes
Forced : No
-
-Релиз от: Flarrow Films
Примечание: Без интро Flarrow Films-
[korsars.pro].t33360.torrent 
Торрент: Зарегистрирован [ 2020-11-09 18:48 ] · 9F954FC2B14B03F4EF9A24EF4DCD8CD028807061

Скачать .torrent

Размер .torrent файла 15 KB

Статус: проверено
.torrent скачан: 4 раз
Размер: 5,78 GB
Правила
Похожие темы

[Профиль] [ЛС]
Показать сообщения:    
Ответить на тему

Текущее время: 30-Ноя 17:26

Часовой пояс: UTC + 4



Вы не можете начинать темы
Вы не можете отвечать на сообщения
Вы не можете редактировать свои сообщения
Вы не можете удалять свои сообщения
Вы не можете голосовать в опросах
Вы не можете прикреплять файлы к сообщениям
Вы можете скачивать файлы
Анализ сайта korsars.pro Яндекс.Метрика