Эмили в Париже / Emily in Paris [S01] (2020) WEB-DL 1080p | Flarrow Films

Ответить на тему
Статистика раздачи [Обновить пиров]
Размер:  10,48 GB   |    Зарегистрирован:  7 дней   |    .torrent скачан:  2 раза
Раздают:  16  [  0 KB/s  ]   Качают:  5  [  0 KB/s  ]   Подробная статистика пиров
 
   
 
 
Автор Сообщение

flarrowfilms ®

Оффлайн

Медали
VIPДруг трекераСупер Мега Контер Квейк


Пол: Не указан

Стаж: 6 месяцев 30 дней

Наличие запрета:

Сообщений: 46

Отдача: 5 Mb/s

Загрузка: 5 Mb/s

Нажми


Скачать Adguard бесплатно

Создавать темы 16-Окт-2020 18:11

[Цитировать]

Информация о фильме
Название: Эмили в Париже
Оригинальное название: Emily in Paris
Год выхода: 2020
Жанр: драма, мелодрама, комедия
Режиссер: Эндрю Флеминг
В ролях: Лили Коллинз, Эшли Парк, Фредерик Анскомбре, Сэмюэл Арнольд, Кейт Уолш, Лукас Браво, Камилль Раза, Уильям Абади
О фильме:
Двадцатилетняя американка Эмили - молодой и амбициозный руководитель отдела маркетинга в Чикаго. Девушка обожает свою работу, родной город. Неожиданно она получает приглашение на новую должность. Но для этого она должна переехать в Париж, чтобы здесь представлять интересы американской компании и вести переговоры. Молодая девушка соглашается на заманчивое предложение французской фирмы.

Страна: США
Продолжительность: 00:29:40 (серия)
Перевод: Профессиональный (многоголосый, закадровый) | Flarrow Films
Роли озвучивали: Лена Лунина, Анастасия Скачкова, Алина Лихачёва, Ахилл Намазов, Евгений Леонов и Семён Евсиков
Файл
Формат: MKV
Кодек: MPEG-4 AVC
Качество: WEB-DL 1080p
Видео: 1920х1080, ~ 5 360 kb/s, 23.976 FPS, 8 bits
Звук: AC-3, 320 kb/s, 2 channels, 48.0 kHz
Субтитры: русские (отключаемые UTF-8)-

MediaInfo

1-я серия
General
Unique ID : 321293263882600745737572387107461656899 (0xF1B6D4EFCE333F6876146706D4C7F143)
Complete name : C:\Flarrow\Emily.in.Paris.S01.1080p.Flarrow.Films\Emily.in.Paris.S01E01.mkv
Format : Matroska
Format version : Version 4
File size : 1.13 GiB
Duration : 29 min 41 s
Overall bit rate mode : Variable
Overall bit rate : 5 439 kb/s
Encoded date : UTC 2020-10-04 20:23:52
Writing application : mkvmerge v32.0.0 ('Astral Progressions') 64-bit
Writing library : libebml v1.3.7 + libmatroska v1.5.0
Video
ID : 1
Format : AVC
Format/Info : Advanced Video Codec
Format profile : Main@L4
Format settings : CABAC / 3 Ref Frames
Format settings, CABAC : Yes
Format settings, Reference : 3 frames
Codec ID : V_MPEG4/ISO/AVC
Duration : 29 min 40 s
Bit rate mode : Variable
Bit rate : 5 360 kb/s
Maximum bit rate : 8 040 kb/s
Width : 1 920 pixels
Height : 1 080 pixels
Display aspect ratio : 16:9
Frame rate mode : Constant
Frame rate : 23.976 (24000/1001) FPS
Color space : YUV
Chroma subsampling : 4:2:0
Bit depth : 8 bits
Scan type : Progressive
Bits/(Pixel*Frame) : 0.108
Stream size : 1.06 GiB (94%)
Writing library : x264 core 148 r2722 1b0121b
Encoding settings : cabac=1 / ref=3 / deblock=1:0:0 / analyse=0x1:0x111 / me=umh / subme=10 / psy=1 / psy_rd=1.00:0.00 / mixed_ref=1 / me_range=24 / chroma_me=1 / trellis=2 / 8x8dct=0 / cqm=0 / deadzone=21,11 / fast_pskip=1 / chroma_qp_offset=-2 / threads=6 / lookahead_threads=1 / sliced_threads=0 / nr=0 / decimate=1 / interlaced=0 / bluray_compat=0 / stitchable=1 / constrained_intra=0 / bframes=2 / b_pyramid=0 / b_adapt=2 / b_bias=0 / direct=3 / weightb=1 / open_gop=0 / weightp=2 / keyint=250 / keyint_min=23 / scenecut=0 / intra_refresh=0 / rc_lookahead=48 / rc=2pass / mbtree=1 / bitrate=5360 / ratetol=1.0 / qcomp=0.50 / qpmin=6 / qpmax=51 / qpstep=4 / cplxblur=20.0 / qblur=0.5 / vbv_maxrate=8040 / vbv_bufsize=10720 / nal_hrd=vbr / filler=0 / ip_ratio=1.40 / aq=1:1.00
Default : Yes
Forced : No
Audio
ID : 2
Format : AC-3
Format/Info : Audio Coding 3
Commercial name : Dolby Digital
Codec ID : A_AC3
Duration : 29 min 41 s
Bit rate mode : Constant
Bit rate : 320 kb/s
Channel(s) : 2 channels
Channel layout : L R
Sampling rate : 48.0 kHz
Frame rate : 31.250 FPS (1536 SPF)
Compression mode : Lossy
Stream size : 68.0 MiB (6%)
Language : Russian
Service kind : Complete Main
Default : Yes
Forced : No
Text
ID : 3
Format : UTF-8
Codec ID : S_TEXT/UTF8
Codec ID/Info : UTF-8 Plain Text
Duration : 28 min 25 s
Bit rate : 95 b/s
Count of elements : 436
Stream size : 19.9 KiB (0%)
Language : Russian
Default : Yes
Forced : No
2-я серия
General
Unique ID : 171379009149253277708671201397315058116 (0x80EE6584B19A42B3619F75179465B9C4)
Complete name : C:\Flarrow\Emily.in.Paris.S01.1080p.Flarrow.Films\Emily.in.Paris.S01E02.mkv
Format : Matroska
Format version : Version 4
File size : 1.06 GiB
Duration : 26 min 41 s
Overall bit rate mode : Variable
Overall bit rate : 5 671 kb/s
Encoded date : UTC 2020-10-04 20:25:35
Writing application : mkvmerge v32.0.0 ('Astral Progressions') 64-bit
Writing library : libebml v1.3.7 + libmatroska v1.5.0
Video
ID : 1
Format : AVC
Format/Info : Advanced Video Codec
Format profile : Main@L4
Format settings : CABAC / 3 Ref Frames
Format settings, CABAC : Yes
Format settings, Reference : 3 frames
Codec ID : V_MPEG4/ISO/AVC
Duration : 26 min 40 s
Bit rate mode : Variable
Bit rate : 5 620 kb/s
Maximum bit rate : 8 430 kb/s
Width : 1 920 pixels
Height : 1 080 pixels
Display aspect ratio : 16:9
Frame rate mode : Constant
Frame rate : 23.976 (24000/1001) FPS
Color space : YUV
Chroma subsampling : 4:2:0
Bit depth : 8 bits
Scan type : Progressive
Bits/(Pixel*Frame) : 0.113
Stream size : 1 021 MiB (94%)
Writing library : x264 core 148 r2722 1b0121b
Encoding settings : cabac=1 / ref=3 / deblock=1:0:0 / analyse=0x1:0x111 / me=umh / subme=10 / psy=1 / psy_rd=1.00:0.00 / mixed_ref=1 / me_range=24 / chroma_me=1 / trellis=2 / 8x8dct=0 / cqm=0 / deadzone=21,11 / fast_pskip=1 / chroma_qp_offset=-2 / threads=6 / lookahead_threads=1 / sliced_threads=0 / nr=0 / decimate=1 / interlaced=0 / bluray_compat=0 / stitchable=1 / constrained_intra=0 / bframes=2 / b_pyramid=0 / b_adapt=2 / b_bias=0 / direct=3 / weightb=1 / open_gop=0 / weightp=2 / keyint=250 / keyint_min=23 / scenecut=0 / intra_refresh=0 / rc_lookahead=48 / rc=2pass / mbtree=1 / bitrate=5620 / ratetol=1.0 / qcomp=0.50 / qpmin=6 / qpmax=51 / qpstep=4 / cplxblur=20.0 / qblur=0.5 / vbv_maxrate=8430 / vbv_bufsize=11240 / nal_hrd=vbr / filler=0 / ip_ratio=1.40 / aq=1:1.00
Default : Yes
Forced : No
Audio
ID : 2
Format : AC-3
Format/Info : Audio Coding 3
Commercial name : Dolby Digital
Codec ID : A_AC3
Duration : 26 min 41 s
Bit rate mode : Constant
Bit rate : 320 kb/s
Channel(s) : 2 channels
Channel layout : L R
Sampling rate : 48.0 kHz
Frame rate : 31.250 FPS (1536 SPF)
Compression mode : Lossy
Stream size : 61.1 MiB (6%)
Language : Russian
Service kind : Complete Main
Default : Yes
Forced : No
Text
ID : 3
Format : UTF-8
Codec ID : S_TEXT/UTF8
Codec ID/Info : UTF-8 Plain Text
Duration : 25 min 24 s
Bit rate : 104 b/s
Count of elements : 422
Stream size : 19.5 KiB (0%)
Language : Russian
Default : Yes
Forced : No
--Релиз от: Flarrow Films
Примечание: Без интро Flarrow Films- -
[korsars.pro].t32767.torrent 
Торрент: Зарегистрирован [ 2020-10-16 18:11 ] · 950C0E0B99FB5A6DC8DDB478B7A65CA5D30431B8

Скачать .torrent

Размер .torrent файла 27 KB

Статус: проверено
.torrent скачан: 2 раз
Размер: 10,48 GB
Правила
Похожие темы

[Профиль] [ЛС]
Показать сообщения:    
Ответить на тему

Текущее время: 24-Окт 06:34

Часовой пояс: UTC + 4



Вы не можете начинать темы
Вы не можете отвечать на сообщения
Вы не можете редактировать свои сообщения
Вы не можете удалять свои сообщения
Вы не можете голосовать в опросах
Вы не можете прикреплять файлы к сообщениям
Вы можете скачивать файлы
Анализ сайта korsars.pro Яндекс.Метрика