Счастливого Хэллоуина, Скуби-Ду! / Happy Halloween, Scooby-Doo! (2020) WEB-DL 1080p | Flarrow Films

Ответить на тему
Статистика раздачи [Обновить пиров]
Размер:  2,55 GB   |    Зарегистрирован:  7 дней   |    .torrent скачан:  1 раз
Раздают:  40  [  0 KB/s  ]   Качают:  3  [  0 KB/s  ]   Подробная статистика пиров
 
   
 
 
Автор Сообщение

flarrowfilms ®

Оффлайн

Медали
VIPДруг трекераСупер Мега Контер Квейк


Пол: Не указан

Стаж: 6 месяцев 30 дней

Наличие запрета:

Сообщений: 46

Отдача: 5 Mb/s

Загрузка: 5 Mb/s

Нажми


Скачать Adguard бесплатно

Создавать темы 16-Окт-2020 13:09

[Цитировать]

Информация о фильме
Название: Счастливого Хэллоуина, Скуби-Ду!
Оригинальное название: Happy Halloween, Scooby-Doo!
Год выхода: 2020
Жанр: мультфильм, ужасы, фэнтези, комедия, детектив, приключения, семейный
Режиссер: Максвелл Атомс
В ролях: Фрэнк Уэлкер, Грэй Гриффин, Кейт Микуччи, Мэттью Лиллард, Кассандра Петерсон, Билл Най
О фильме:
Банда приезжает на Хэллоуин в город, который терроризирует Джонатан Крэйн, переодевающийся в Пугало. В городе банде помогают их старые знакомые - Эльвира и Билл Най, но желательна ли помощь этих старых знакомых или эта помощь лишь будет мешать делу? Любимый праздник Скуби Ду и компании уже настал! С веселыми ненастоящими монстрами и сладкими конфетами Хэллоуин – это рай для этих голодных гурманов, идущих от двери к двери. Но в этом году этот праздник неожиданно приобрел кисловатый оттенок, когда соседская тыквенная грядка заражается ядовитой тиной, создавая высоко летящие тыквы-фонари, а их тыквенный лидер королевских размеров давит все на своем пути. Только Скуби-Ду и его компании по силам справиться с надвигающейся напастью и разгадать эту гигантских размеров тайну.

Страна: США
Продолжительность: 01:16:19
Перевод: Профессиональный (многоголосый, закадровый) | Flarrow Films
Роли озвучивали: Рута Новикова, Рина Чернышова, Ахилл Намазов, Евгений Леонов, Денис Кузьмичёв, Алина Лихачёва, Алексей Ядренников и Семён Евсиков
Файл
Формат: MKV
Кодек: MPEG-4 AVC
Качество: WEB-DL 1080
Видео: 1920х1080, ~ 4 468 kb/s, 23.976, 8 bits
Звук: AC-3, 320 kb/s, 2 channels, 48.0 kHz
Субтитры: Русские (отключаемые UTF-8, вшитые на песни)-

MediaInfo

General
Unique ID : 272929011628078252097069276514330447629 (0xCD543732C8B62E81372A06A3EC558F0D)
Complete name : C:\Flarrow\Happy.Halloween.Scooby.Doo.2020.1080p.Flarrow.Films.mkv
Format : Matroska
Format version : Version 4
File size : 2.55 GiB
Duration : 1 h 16 min
Overall bit rate : 4 790 kb/s
Encoded date : UTC 2020-10-16 07:33:01
Writing application : mkvmerge v32.0.0 ('Astral Progressions') 64-bit
Writing library : libebml v1.3.7 + libmatroska v1.5.0
Video
ID : 1
Format : AVC
Format/Info : Advanced Video Codec
Format profile : High@L4.1
Format settings : CABAC / 4 Ref Frames
Format settings, CABAC : Yes
Format settings, Reference : 4 frames
Codec ID : V_MPEG4/ISO/AVC
Duration : 1 h 16 min
Bit rate : 4 468 kb/s
Width : 1 920 pixels
Height : 1 080 pixels
Display aspect ratio : 16:9
Frame rate mode : Constant
Frame rate : 23.976 (24000/1001) FPS
Color space : YUV
Chroma subsampling : 4:2:0
Bit depth : 8 bits
Scan type : Progressive
Bits/(Pixel*Frame) : 0.090
Stream size : 2.38 GiB (93%)
Writing library : x264 core 146 r2538 121396c
Encoding settings : cabac=1 / ref=4 / deblock=1:1:1 / analyse=0x3:0x113 / me=hex / subme=6 / psy=1 / psy_rd=0.40:0.00 / mixed_ref=1 / me_range=16 / chroma_me=1 / trellis=1 / 8x8dct=1 / cqm=0 / deadzone=21,11 / fast_pskip=1 / chroma_qp_offset=-2 / threads=6 / lookahead_threads=1 / sliced_threads=0 / nr=0 / decimate=1 / interlaced=0 / bluray_compat=0 / constrained_intra=0 / bframes=5 / b_pyramid=2 / b_adapt=1 / b_bias=0 / direct=1 / weightb=1 / open_gop=0 / weightp=1 / keyint=250 / keyint_min=23 / scenecut=40 / intra_refresh=0 / rc_lookahead=30 / rc=crf / mbtree=1 / crf=19.0 / qcomp=0.60 / qpmin=0 / qpmax=69 / qpstep=4 / ip_ratio=1.40 / aq=1:0.60
Default : Yes
Forced : No
Audio
ID : 2
Format : AC-3
Format/Info : Audio Coding 3
Commercial name : Dolby Digital
Codec ID : A_AC3
Duration : 1 h 16 min
Bit rate mode : Constant
Bit rate : 320 kb/s
Channel(s) : 2 channels
Channel layout : L R
Sampling rate : 48.0 kHz
Frame rate : 31.250 FPS (1536 SPF)
Compression mode : Lossy
Stream size : 174 MiB (7%)
Language : Russian
Service kind : Complete Main
Default : Yes
Forced : No
Text
ID : 3
Format : UTF-8
Codec ID : S_TEXT/UTF8
Codec ID/Info : UTF-8 Plain Text
Duration : 1 h 15 min
Bit rate : 107 b/s
Count of elements : 936
Stream size : 59.5 KiB (0%)
Language : Russian
Default : Yes
Forced : No
--Релиз от: Flarrow Films
Примечание: Без интро Flarrow Films- -
[korsars.pro].t32762.torrent 
Торрент: Зарегистрирован [ 2020-10-16 13:09 ] · 9BF35BEEC5C44229A9D7DF14954B3E903598550A

Скачать .torrent

Размер .torrent файла 13 KB

Статус: проверено
.torrent скачан: 1 раз
Размер: 2,55 GB
Правила
Похожие темы

[Профиль] [ЛС]
Показать сообщения:    
Ответить на тему

Текущее время: 24-Окт 07:19

Часовой пояс: UTC + 4



Вы не можете начинать темы
Вы не можете отвечать на сообщения
Вы не можете редактировать свои сообщения
Вы не можете удалять свои сообщения
Вы не можете голосовать в опросах
Вы не можете прикреплять файлы к сообщениям
Вы можете скачивать файлы
Анализ сайта korsars.pro Яндекс.Метрика