Волшебный лагерь / Magic Camp (2020) WEB-DL 720p | Flarrow Films

Ответить на тему
Статистика раздачи [Обновить пиров]
Размер:  3,47 GB   |    Зарегистрирован:  12 дней   |    .torrent скачан:  1 раз
Раздают:  69  [  0 KB/s  ]   Качают:  5  [  0 KB/s  ]   Подробная статистика пиров
 
   
 
 
Автор Сообщение

4udaki ®

Онлайн

Медали


Пол: Мужской

Стаж: 5 лет 11 месяцев

Наличие запрета:

Сообщений: 8177

Откуда: korsars.pro

Отдача: 2 Mb/s

Загрузка: 20 Mb/s

Нажми


Скачать Adguard бесплатно

Создавать темы 13-Окт-2020 21:00

[Цитировать]

Информация о фильме
Название: Волшебный лагерь
Оригинальное название: Magic Camp
Год выхода: 2020
Жанр: Фэнтези, комедия, семейный
Режиссер: Марк Уотерс
В ролях: Адам Дивайн, Элдис Ходж, Рошелль Эйтс, Джеффри Тэмбор, Мэдисон Бонтемпо, Розалинд Чао, Гиллиан Джейкобс, Джози Тота, Майкл Хичкок
О фильме:
Сюжет вращается вокруг Энди, бывшего фокусника, который по настоянию своего наставника вернулся в летний лагерь для начинающих магов, где он провёл всю юность, в надежде возобновить свою карьеру.

Страна: США
Студия: Gunn Films, Team Todd, Walt Disney Pictures
Продолжительность: 01:37:53
Перевод: Профессиональный многоголосый | Flarrow Films
Файл
Кодек: AVC
Качество: WEB-DL 720p
Видео: MPEG-4 AVC, 4239 Kбит/с, 1280x720, 23.976 кадр/с
Аудио #1: Русский (АС3, 2 ch, 192 Кбит/с, 48.0 KHz) Профессиональный (многоголосый, закадровый) Flarrow Films
Аудио #2: Английский (АС3, 6 ch, 640 Кбит/с, 48.0 KHz)
Субтитры: Русские (Full), английские, испанские, французские, немецкие, итальянские, португальские
► Без Рекламы!
Трейлер

MediaInfo

Источник: Magic.Camp.2020.720p.WEB-DL.DDP5.1
General
Unique ID : 217440360347653047509874449692122638704 (0xA3957D77ED4AB7AEADF041C07F1F6970)
Complete name : Magic.Camp.2020.WEB-DL.720p.mkv
Format : Matroska
Format version : Version 4
File size : 3.47 GiB
Duration : 1 h 37 min
Overall bit rate mode : Variable
Overall bit rate : 5 074 kb/s
Encoded date : UTC 2020-08-22 07:23:38
Writing application : mkvmerge v7.1.0 ('Good Love') 64bit built on Jul 27 2014 13:06:55
Writing library : libebml v1.3.0 + libmatroska v1.4.1
Video
ID : 1
Format : AVC
Format/Info : Advanced Video Codec
Format profile : High@L3.1
Format settings : CABAC / 4 Ref Frames
Format settings, CABAC : Yes
Format settings, Reference fra : 4 frames
Codec ID : V_MPEG4/ISO/AVC
Duration : 1 h 37 min
Bit rate mode : Variable
Bit rate : 4 239 kb/s
Maximum bit rate : 6 375 kb/s
Width : 1 280 pixels
Height : 720 pixels
Display aspect ratio : 16:9
Frame rate mode : Constant
Frame rate : 23.976 (24000/1001) FPS
Color space : YUV
Chroma subsampling : 4:2:0
Bit depth : 8 bits
Scan type : Progressive
Bits/(Pixel*Frame) : 0.192
Stream size : 2.90 GiB (84%)
Language : English
Default : Yes
Forced : No
Color range : Limited
Color primaries : BT.709
Transfer characteristics : BT.709
Matrix coefficients : BT.709
Audio #1
ID : 2
Format : AC-3
Format/Info : Audio Coding 3
Commercial name : Dolby Digital
Codec ID : A_AC3
Duration : 1 h 37 min
Bit rate mode : Constant
Bit rate : 192 kb/s
Channel(s) : 2 channels
Channel layout : L R
Sampling rate : 48.0 kHz
Frame rate : 31.250 FPS (1536 SPF)
Compression mode : Lossy
Stream size : 134 MiB (4%)
Title : MVO | Flarrow Films
Language : Russian
Service kind : Complete Main
Default : Yes
Forced : No
Audio #2
ID : 3
Format : AC-3
Format/Info : Audio Coding 3
Commercial name : Dolby Digital
Codec ID : A_AC3
Duration : 1 h 37 min
Bit rate mode : Constant
Bit rate : 640 kb/s
Channel(s) : 6 channels
Channel layout : L R C LFE Ls Rs
Sampling rate : 48.0 kHz
Frame rate : 31.250 FPS (1536 SPF)
Compression mode : Lossy
Stream size : 448 MiB (13%)
Language : English
Service kind : Complete Main
Default : No
Forced : No
Text #1
ID : 4
Format : UTF-8
Codec ID : S_TEXT/UTF8
Codec ID/Info : UTF-8 Plain Text
Duration : 1 h 33 min
Bit rate : 134 b/s
Count of elements : 1537
Stream size : 91.9 KiB (0%)
Title : Russian
Language : Russian
Default : No
Forced : No
Text #2
ID : 5
Format : UTF-8
Codec ID : S_TEXT/UTF8
Codec ID/Info : UTF-8 Plain Text
Duration : 1 h 31 min
Bit rate : 84 b/s
Count of elements : 1555
Stream size : 56.3 KiB (0%)
Title : English
Language : English
Default : No
Forced : No
Text #3
ID : 6
Format : UTF-8
Codec ID : S_TEXT/UTF8
Codec ID/Info : UTF-8 Plain Text
Duration : 1 h 34 min
Bit rate : 73 b/s
Count of elements : 1496
Stream size : 51.3 KiB (0%)
Title : French
Language : French
Default : No
Forced : No
Text #4
ID : 7
Format : UTF-8
Codec ID : S_TEXT/UTF8
Codec ID/Info : UTF-8 Plain Text
Duration : 1 h 34 min
Bit rate : 74 b/s
Count of elements : 1477
Stream size : 52.1 KiB (0%)
Title : German
Language : German
Default : No
Forced : No
Text #5
ID : 8
Format : UTF-8
Codec ID : S_TEXT/UTF8
Codec ID/Info : UTF-8 Plain Text
Duration : 1 h 34 min
Bit rate : 74 b/s
Count of elements : 1514
Stream size : 51.5 KiB (0%)
Title : Spanish
Language : Spanish
Default : No
Forced : No
Text #6
ID : 9
Format : UTF-8
Codec ID : S_TEXT/UTF8
Codec ID/Info : UTF-8 Plain Text
Duration : 1 h 34 min
Bit rate : 81 b/s
Count of elements : 1511
Stream size : 56.8 KiB (0%)
Title : Italian
Language : Italian
Default : No
Forced : No
Text #7
ID : 10
Format : UTF-8
Codec ID : S_TEXT/UTF8
Codec ID/Info : UTF-8 Plain Text
Duration : 1 h 37 min
Bit rate : 80 b/s
Count of elements : 1515
Stream size : 57.1 KiB (0%)
Title : Portuguese
Language : Portuguese
Default : No
Forced : No
-
[korsars.pro].t32676.torrent 
Торрент: Зарегистрирован [ 2020-10-13 21:00 ] · 290FE6ED05D3E5A85FADBE351B9E8434C08A479A

Скачать .torrent

Размер .torrent файла 18 KB

Статус: проверено
.torrent скачан: 1 раз
Размер: 3,47 GB
Правила
Похожие темы

[Профиль] [ЛС]
Показать сообщения:    
Ответить на тему

Текущее время: 26-Окт 16:07

Часовой пояс: UTC + 4



Вы не можете начинать темы
Вы не можете отвечать на сообщения
Вы не можете редактировать свои сообщения
Вы не можете удалять свои сообщения
Вы не можете голосовать в опросах
Вы не можете прикреплять файлы к сообщениям
Вы можете скачивать файлы
Анализ сайта korsars.pro Яндекс.Метрика