Вся правда о медведях: Фильм / We Bare Bears: The Movie (2020) WEBRip 1080p | Flarrow Films

Ответить на тему
Статистика раздачи [Обновить пиров]
Размер:  2,58 GB   |    Зарегистрирован:  1 год   |    .torrent скачан:  12 раз
Раздают:  23  [  0 KB/s  ]   Качают:  7  [  0 KB/s  ]   Подробная статистика пиров
 
   
 
 
Автор Сообщение

4udaki ®

Онлайн

Медали


Пол: Мужской

Стаж: 6 лет 11 месяцев

Наличие запрета:

Сообщений: 11569

Откуда: korsars.pro

Отдача: 2 Mb/s

Загрузка: 20 Mb/s

Нажми


Скачать Adguard бесплатно

Создавать темы 07-Окт-2020 17:00

[Цитировать]

Информация о фильме
Название: Вся правда о медведях: Фильм
Оригинальное название: We Bare Bears: The Movie
Год выхода: 2020
Жанр: мультфильм, комедия, приключения, семейный
Режиссер: Дэниэл Чонг
В ролях: Эрик Эдельштейн, Бобби Мойнахан, Деметри Мартин, Марк Ивэн Джексон, Пэттон Освальт, Шарлин Йи, Камерон Эспозито, Джейсон Ли, Сэм Лаваньино, Макс Митчелл
О фильме:
Три брата-медведя Гризли, Панда и Белый отчаянно пытаются влиться в общество людей, однако покупая еду, борясь за интернет-славу или заводя друзей, им не всегда удаётся соответствовать людской природе. Но братья всегда готовы прийти друг другу на выручку. Они решают, что из США пора бы перебираться в Канаду, где их никто не достанет и вообще там, судя по слухам, любят медведей. На своём пути они посетят не только самые известные локации Штатов, но и познакомятся с другими животными.

Страна: США
Продолжительность: 01:08:58
Перевод: Профессиональный (многоголосый, закадровый) | Flarrow Films
Роли озвучивали: Андрей Маслов, Денис Строев, Ахилл Намазов, Денис Кузьмичёв, Рута Новикова, Анастасия Скачкова, Семён Евсиков и Андрей Лысенко.
Файл
Формат: MKV
Кодек: MPEG-4 AVC
Качество: WEBRip 1080p
Видео: 1920х1080, ~ 5 036 kb/s, 23.976 FPS, 8 bits
Звук: AC-3, 320 kb/s, 2 channels, 48.0 kHz
Субтитры: русские (вшитые, отключаемые UTF-8)-

MediaInfo

General
Unique ID : 210323175779124375450745155238667572512 (0x9E3AC52D586236EEDB547FB2E5755520)
Complete name : C:FlarrowWe.Bare.Bears.The.Movie.2020.1080p.AMZN.WEBRip.DDP5.1.x264-CMWe.Bare.Bears.The.Movie.2020.1080p.Flarrow.Films.mkv
Format : Matroska
Format version : Version 4
File size : 2.58 GiB
Duration : 1 h 8 min
Overall bit rate : 5 357 kb/s
Encoded date : UTC 2020-06-16 12:18:58
Writing application : mkvmerge v32.0.0 ('Astral Progressions') 64-bit
Writing library : libebml v1.3.7 + libmatroska v1.5.0
Video
ID : 1
Format : AVC
Format/Info : Advanced Video Codec
Format profile : High@L4
Format settings : CABAC / 4 Ref Frames
Format settings, CABAC : Yes
Format settings, Reference : 4 frames
Codec ID : V_MPEG4/ISO/AVC
Duration : 1 h 8 min
Bit rate mode : Constant
Bit rate : 5 036 kb/s
Nominal bit rate : 10 000 kb/s
Width : 1 920 pixels
Height : 1 080 pixels
Display aspect ratio : 16:9
Frame rate mode : Constant
Frame rate : 23.976 (24000/1001) FPS
Color space : YUV
Chroma subsampling : 4:2:0
Bit depth : 8 bits
Scan type : Progressive
Bits/(Pixel*Frame) : 0.101
Stream size : 2.43 GiB (94%)
Default : Yes
Forced : No
Color range : Limited
Color primaries : BT.709
Transfer characteristics : BT.709
Matrix coefficients : BT.709
Audio
ID : 2
Format : AC-3
Format/Info : Audio Coding 3
Commercial name : Dolby Digital
Codec ID : A_AC3
Duration : 1 h 8 min
Bit rate mode : Constant
Bit rate : 320 kb/s
Channel(s) : 2 channels
Channel layout : L R
Sampling rate : 48.0 kHz
Frame rate : 31.250 FPS (1536 SPF)
Compression mode : Lossy
Stream size : 158 MiB (6%)
Service kind : Complete Main
Default : Yes
Forced : No
Text
ID : 3
Format : UTF-8
Codec ID : S_TEXT/UTF8
Codec ID/Info : UTF-8 Plain Text
Duration : 1 h 7 min
Bit rate : 124 b/s
Count of elements : 1410
Stream size : 61.7 KiB (0%)
Default : Yes
Forced : No
--
[korsars.pro].t32512.torrent 
Торрент: Зарегистрирован [ 2020-10-07 17:00 ] · 6A07FE6CBCB0A06B565C91E3D40333B07AAB0962

Скачать .torrent

Размер .torrent файла 14 KB

Статус: проверено
.torrent скачан: 12 раз
Размер: 2,58 GB
Правила
Похожие темы

Вы не зарегистрированы на нашем сайте. Вам доступна для скачивания только часть контента. Чтобы увидеть весь контент сайта, пожалуйста, зарегистрироруйтесь.

Дешевый и быстрый Сидбокс

Ключи и пин-коды

Игры, Кредитные карты, IP-телефония, Интернет провайдеры, Мобильная связь, Спутниковое ТВ

Электронные книги

Бизнес и экономика, Дом, быт, семья, досуг, Санкт-Петербург, Компьютеры и интернет, Наука и образование, Техническая литература, Юридическая литература

Цифровые товары

iTunes & App Store, Базы данных, Дизайн, Доступ к ресурсам, Kарты продления, ключи, Фотографии, Шаблоны для сайтов

Программное обеспечение

Безопасность, Игры, PC, Интернет, Мобильная связь, Программирование, Продвижение сайтов (SEO), Утилиты
У Вас отключен VIP статус, поэтому Вам показывается реклама на сайте. Вы можете поддержать наш ресурс и приобрести VIP статус, тем самым отключив показ рекламы на сайте, а ещё VIP пользователи получают возможность

смотреть аниме онлайн в HD качестве

(не распространяется на раздел Flarrow Films), а так же получить 5 инвайтов, которыми можно поделиться с друзьями или знакомыми.
Дешевый и быстрый Сидбокс

Ключи и пин-коды

Игры, Кредитные карты, IP-телефония, Интернет провайдеры, Мобильная связь, Спутниковое ТВ

Электронные книги

Бизнес и экономика, Дом, быт, семья, досуг, Санкт-Петербург, Компьютеры и интернет, Наука и образование, Техническая литература, Юридическая литература

Цифровые товары

iTunes & App Store, Базы данных, Дизайн, Доступ к ресурсам, Kарты продления, ключи, Фотографии, Шаблоны для сайтов

Программное обеспечение

Безопасность, Игры, PC, Интернет, Мобильная связь, Программирование, Продвижение сайтов (SEO), Утилиты
[Профиль] [ЛС]
Показать сообщения:    
Ответить на тему

Текущее время: 23-Окт 00:04

Часовой пояс: UTC + 4



Вы не можете начинать темы
Вы не можете отвечать на сообщения
Вы не можете редактировать свои сообщения
Вы не можете удалять свои сообщения
Вы не можете голосовать в опросах
Вы не можете прикреплять файлы к сообщениям
Вы можете скачивать файлы
Анализ сайта korsars.pro Яндекс.Метрика