Бездарная Нана / Munou na Nana / Talentless Nana [S01] (2020) WEBRip 1080p от KORSARS | StudioBand

Ответить на тему
Статистика раздачи [Обновить пиров]
Размер:  4,85 GB   |    Зарегистрирован:  9 месяцев 23 дня   |    .torrent скачан:  97 раз
Раздают:  15  [  0 KB/s  ]   Качают:  5  [  0 KB/s  ]   Подробная статистика пиров
 
   
 
 
Автор Сообщение

4udaki ®

Оффлайн

Медали


Пол: Мужской

Стаж: 6 лет 11 месяцев

Наличие запрета:

Сообщений: 11563

Откуда: korsars.pro

Отдача: 2 Mb/s

Загрузка: 20 Mb/s

Нажми


Скачать Adguard бесплатно

Создавать темы 04-Окт-2020 18:01

[Цитировать]

Бездарная Нана / Munou na Nana / Talentless Nana-Год выпуска: 2020
Страна:
Япония
Жанр: психологическое, сверхъестественное, триллер, сёнен
Продолжительность: ~ 00:24:00 (серия)
Перевод: Профессиональный (многоголосый, закадровый) | StudioBand
Режиссёр: Синдзи Исихира
Субтитры: русские (вшитые, на надписи)-Рейтинг:
-Релиз от: -Описание:
Пятьдесят лет назад на Землю напали монстры, которых впоследствии стали называть «врагами человечества». Для борьбы с этой угрозой были созданы специальные школы, где учились подростки с экстраординарными способностями. За возможность бросить вызов реальности, их стали называть «талантливыми». Один из таких учеников, Нанао Накаджима, скрывает свою способность, из-за чего получает прозвище «бездарь». Но тем временем в класс Нанао переводятся двое учеников — Кёя Онодэра, также скрывающий свою способность, и Нана Хираги, заявляющая, что умеет читать мысли людей. Что изменится в школе с переводом этих двоих? © Shikimori-Качество: WEBRip 1080p
Формат: MKV (MPEG-4 AVC)
Видео: 1920x1080, ~1 641 kb/s, 23.976 FPS, 8 bits
Аудио RUS: AAC LC, 320 kb/s, 2 channels, 48.0 kHz-

MediaInfo

General
Unique ID                   : 280940205376512344309466778907599231742 (0xD35B1D8B9EE4E14451E15931B2CCDAFE)
Complete name               : D:\Downloads\Anime\[KORSARS]_Munou.na.Nana.[S01].WEBRip.1080p._[StudioBand]\[KORSARS]_Munou.na.Nana.[S01E01].WEBRip.1080p._[StudioBand].mkv
Format                      : Matroska
Format version              : Version 4
File size                   : 333 MiB
Duration                    : 23 min 40 s
Overall bit rate            : 1 964 kb/s
Movie name                  : [KORSARS]_Munou.na.Nana.[S01E01].WEBRip.1080p._[StudioBand]
Encoded date                : UTC 2020-10-04 13:56:39
Writing application         : mkvmerge v51.0.0 ('I Wish') 64-bit
Writing library             : libebml v1.4.0 + libmatroska v1.6.2
Video
ID                          : 1
Format                      : AVC
Format/Info                 : Advanced Video Codec
Format profile              : Main@L4
Format settings             : CABAC / 4 Ref Frames
Format settings, CABAC      : Yes
Format settings, Reference  : 4 frames
Codec ID                    : V_MPEG4/ISO/AVC
Duration                    : 23 min 40 s
Bit rate                    : 1 641 kb/s
Width                       : 1 920 pixels
Height                      : 1 080 pixels
Display aspect ratio        : 16:9
Frame rate mode             : Constant
Frame rate                  : 23.976 (24000/1001) FPS
Color space                 : YUV
Chroma subsampling          : 4:2:0
Bit depth                   : 8 bits
Scan type                   : Progressive
Bits/(Pixel*Frame)          : 0.033
Stream size                 : 278 MiB (84%)
Title                       : [KORSARS]_Munou.na.Nana.[S01E01].WEBRip.1080p._[StudioBand]
Writing library             : x264 core 157 r2935 545de2f
Encoding settings           : cabac=1 / ref=3 / deblock=1:0:0 / analyse=0x1:0x111 / me=hex / subme=7 / psy=1 / psy_rd=1.00:0.00 / mixed_ref=1 / me_range=16 / chroma_me=1 / trellis=1 / 8x8dct=0 / cqm=0 / deadzone=21,11 / fast_pskip=1 / chroma_qp_offset=-2 / threads=9 / lookahead_threads=1 / sliced_threads=0 / nr=0 / decimate=1 / interlaced=0 / bluray_compat=0 / constrained_intra=0 / bframes=3 / b_pyramid=2 / b_adapt=1 / b_bias=0 / direct=1 / weightb=1 / open_gop=0 / weightp=2 / keyint=240 / keyint_min=24 / scenecut=40 / intra_refresh=0 / rc_lookahead=40 / rc=crf / mbtree=1 / crf=20.0 / qcomp=0.60 / qpmin=0 / qpmax=69 / qpstep=4 / vbv_maxrate=20000 / vbv_bufsize=25000 / crf_max=0.0 / nal_hrd=none / filler=0 / ip_ratio=1.40 / aq=1:1.00
Default                     : Yes
Forced                      : No
Color range                 : Limited
Color primaries             : BT.709
Transfer characteristics    : BT.709
Matrix coefficients         : BT.709
Audio
ID                          : 2
Format                      : AAC LC
Format/Info                 : Advanced Audio Codec Low Complexity
Codec ID                    : A_AAC-2
Duration                    : 23 min 40 s
Bit rate                    : 321 kb/s
Channel(s)                  : 2 channels
Channel layout              : L R
Sampling rate               : 48.0 kHz
Frame rate                  : 46.875 FPS (1024 SPF)
Compression mode            : Lossy
Delay relative to video     : -21 ms
Stream size                 : 54.3 MiB (16%)
Title                       : [KORSARS]_Munou.na.Nana.[S01E01].WEBRip.1080p._[StudioBand]
Language                    : Russian
Default                     : Yes
Forced                      : No
--27.12.2020 обновлено. Добавлена 13-я серия. Сезон окончен.-Финансовая помощь автору
[korsars.pro].t32441.torrent 
Торрент: Зарегистрирован [ 2020-12-27 17:36 ] · 1D5DDCC2FCB716AF3282FFD31E8CD2D8F285704B

Скачать .torrent

Размер .torrent файла 14 KB

Статус: проверено
.torrent скачан: 97 раз
Размер: 4,85 GB
Правила
Rentgen(05-Окт-20), Osep(16-Окт-20), loe3df(24-Окт-20), Reventor(20-Ноя-20), CHIIZ(13-Янв-21), Сериаломан(15-Янв-21)

Вы не зарегистрированы на нашем сайте. Вам доступна для скачивания только часть контента. Чтобы увидеть весь контент сайта, пожалуйста, зарегистрироруйтесь.

Дешевый и быстрый Сидбокс

Ключи и пин-коды

Игры, Кредитные карты, IP-телефония, Интернет провайдеры, Мобильная связь, Спутниковое ТВ

Электронные книги

Бизнес и экономика, Дом, быт, семья, досуг, Санкт-Петербург, Компьютеры и интернет, Наука и образование, Техническая литература, Юридическая литература

Цифровые товары

iTunes & App Store, Базы данных, Дизайн, Доступ к ресурсам, Kарты продления, ключи, Фотографии, Шаблоны для сайтов

Программное обеспечение

Безопасность, Игры, PC, Интернет, Мобильная связь, Программирование, Продвижение сайтов (SEO), Утилиты
У Вас отключен VIP статус, поэтому Вам показывается реклама на сайте. Вы можете поддержать наш ресурс и приобрести VIP статус, тем самым отключив показ рекламы на сайте, а ещё VIP пользователи получают возможность

смотреть аниме онлайн в HD качестве

(не распространяется на раздел Flarrow Films), а так же получить 5 инвайтов, которыми можно поделиться с друзьями или знакомыми.
Дешевый и быстрый Сидбокс

Ключи и пин-коды

Игры, Кредитные карты, IP-телефония, Интернет провайдеры, Мобильная связь, Спутниковое ТВ

Электронные книги

Бизнес и экономика, Дом, быт, семья, досуг, Санкт-Петербург, Компьютеры и интернет, Наука и образование, Техническая литература, Юридическая литература

Цифровые товары

iTunes & App Store, Базы данных, Дизайн, Доступ к ресурсам, Kарты продления, ключи, Фотографии, Шаблоны для сайтов

Программное обеспечение

Безопасность, Игры, PC, Интернет, Мобильная связь, Программирование, Продвижение сайтов (SEO), Утилиты


Последний раз редактировалось: 4udaki (2020-12-27 17:36), всего редактировалось 13 раз(а)
[Профиль] [ЛС]

Rentgen

Оффлайн

Медали


Пол: Не указан

Стаж: 1 год 8 месяцев

Наличие запрета:

Сообщений: 103

Отдача: не определено

Загрузка: не определено

Нажми


Скачать Adguard бесплатно

Создавать темы 12-Окт-2020 04:25 (спустя 7 дней)

[Цитировать]

Вашему вниманию предстанет, Boku no Hero Academia / Моя Геройская Академия - наоборот (по всем аспектам).
[Профиль] [ЛС]

VLDeshka

Оффлайн

Медали


Пол: Не указан

Стаж: 11 месяцев 27 дней

Наличие запрета:

Сообщений: 48

Отдача: 2 Mb/s

Загрузка: 20 Mb/s

Нажми


Скачать Adguard бесплатно

Создавать темы 24-Окт-2020 14:45 (спустя 12 дней)

[Цитировать]

Стоит ждать 3-ю серию?
[Профиль] [ЛС]

4udaki ®

Оффлайн

Медали


Пол: Мужской

Стаж: 6 лет 11 месяцев

Наличие запрета:

Сообщений: 11563

Откуда: korsars.pro

Отдача: 2 Mb/s

Загрузка: 20 Mb/s

Нажми


Скачать Adguard бесплатно

Создавать темы 24-Окт-2020 16:59 (спустя 2 часа 13 минут)

[Цитировать]

40003Стоит ждать 3-ю серию?
Завтра будет обновление раздачи. Добавлю 3-ю и 4-ю серии.
[Профиль] [ЛС]
Показать сообщения:    
Ответить на тему

Текущее время: 20-Окт 11:05

Часовой пояс: UTC + 4



Вы не можете начинать темы
Вы не можете отвечать на сообщения
Вы не можете редактировать свои сообщения
Вы не можете удалять свои сообщения
Вы не можете голосовать в опросах
Вы не можете прикреплять файлы к сообщениям
Вы можете скачивать файлы
Анализ сайта korsars.pro Яндекс.Метрика