Няня. Королева проклятых / The Babysitter: Killer Queen (2020) WEB-DL 1080 | Flarrow Films

Ответить на тему
Статистика раздачи [Обновить пиров]
Размер:  3,67 GB   |    Зарегистрирован:  1 год 2 месяца   |    .torrent скачан:  23 раза
Раздают:  58  [  0 KB/s  ]   Качают:  5  [  0 KB/s  ]   Подробная статистика пиров
 
   
 
 
Автор Сообщение

flarrowfilms ®

Оффлайн

Медали
VIPДруг трекераСупер Мега Контер Квейк


Пол: Не указан

Стаж: 1 год 8 месяцев

Наличие запрета:

Сообщений: 104

Отдача: 5 Mb/s

Загрузка: 5 Mb/s

Нажми


Скачать Adguard бесплатно

Создавать темы 21-Сен-2020 18:55

[Цитировать]

Информация о фильме
Название: Няня. Королева проклятых
Оригинальное название: The Babysitter: Killer Queen
Год выхода: 2020
Жанр: ужасы, комедия, мелодрама
Режиссер: МакДжи
В ролях: Джуда Льюис, Белла Торн, Лесли Бибб, Кен Марино, Эмили Элин Линд, Робби Амелл, Дженна Ортега, Хана Мэй Ли, Аманда Серни, Эндрю Бэчелор
О фильме:
Два года прошло после победы Коула над сатанинским культом, который возглавляла его няня Би, но ему до сих пор никто не верит, ведь тела культистов так и не нашли. Парень посещает школьного психолога и принимает таблетки, но всё так же упорно твердит о произошедшем, поэтому родители уже подумывают определить его в специализированное учреждение. Узнав об этом, Коул сбегает с одноклассниками на грандиозную вечеринку у озера, где внезапно встречается лицом к лицу со старыми врагами - члены культа восстают из мёртвых и теперь очень сильно желают отомстить за поражение.

Страна: США
Продолжительность: 01:42:26
Перевод: Профессиональный (многоголосый, закадровый) | Flarrow Films
Роли озвучивали: Семён Евсиков, Лена Лунина , Анастасия Скачкова , Ахилл Намазов, Денис Кузьмичёв, Алина Лихачёва, Екатерина Луценко, Ашраф Мансур, Серёжа Пасякин и Рина Чернышова
Файл
Формат: MKV
Кодек: MPEG-4 AVC
Качество: WEB-DL 1080p
Видео: 1920х1080, ~ 4 870 kb/s, 23.976 FPS, 8 bits
Звук: AC-3, 320 kb/s, 2 channels, 48.0 kHz
Субтитры: Русские (отключаемые UTF-8)-

MediaInfo

General
Unique ID : 229098661605049797142981798422549266035 (0xAC5ACC194247E4C540101F8AF3AE7E73)
Complete name : C:\Flarrow\The.Babysitter.Killer.Queen.2020.1080p.Flarrow.Films.mkv
Format : Matroska
Format version : Version 4
File size : 3.67 GiB
Duration : 1 h 42 min
Overall bit rate mode : Variable
Overall bit rate : 5 124 kb/s
Encoded date : UTC 2020-09-21 13:52:26
Writing application : mkvmerge v32.0.0 ('Astral Progressions') 64-bit
Writing library : libebml v1.3.7 + libmatroska v1.5.0
Video
ID : 1
Format : AVC
Format/Info : Advanced Video Codec
Format profile : Main@L4
Format settings : CABAC / 3 Ref Frames
Format settings, CABAC : Yes
Format settings, Reference : 3 frames
Codec ID : V_MPEG4/ISO/AVC
Duration : 1 h 42 min
Bit rate mode : Variable
Bit rate : 4 870 kb/s
Maximum bit rate : 7 305 kb/s
Width : 1 920 pixels
Height : 1 080 pixels
Display aspect ratio : 16:9
Frame rate mode : Constant
Frame rate : 24.000 FPS
Color space : YUV
Chroma subsampling : 4:2:0
Bit depth : 8 bits
Scan type : Progressive
Bits/(Pixel*Frame) : 0.098
Stream size : 3.44 GiB (94%)
Writing library : x264 core 148 r2722 1b0121b
Encoding settings : cabac=1 / ref=3 / deblock=1:0:0 / analyse=0x1:0x111 / me=umh / subme=10 / psy=1 / psy_rd=1.00:0.00 / mixed_ref=1 / me_range=24 / chroma_me=1 / trellis=2 / 8x8dct=0 / cqm=0 / deadzone=21,11 / fast_pskip=1 / chroma_qp_offset=-2 / threads=6 / lookahead_threads=1 / sliced_threads=0 / nr=0 / decimate=1 / interlaced=0 / bluray_compat=0 / stitchable=1 / constrained_intra=0 / bframes=2 / b_pyramid=0 / b_adapt=2 / b_bias=0 / direct=3 / weightb=1 / open_gop=0 / weightp=2 / keyint=250 / keyint_min=24 / scenecut=0 / intra_refresh=0 / rc_lookahead=48 / rc=2pass / mbtree=1 / bitrate=4870 / ratetol=1.0 / qcomp=0.50 / qpmin=6 / qpmax=51 / qpstep=4 / cplxblur=20.0 / qblur=0.5 / vbv_maxrate=7305 / vbv_bufsize=9740 / nal_hrd=vbr / filler=0 / ip_ratio=1.40 / aq=1:1.00
Default : Yes
Forced : No
Audio
ID : 2
Format : AC-3
Format/Info : Audio Coding 3
Commercial name : Dolby Digital
Codec ID : A_AC3
Duration : 1 h 42 min
Bit rate mode : Constant
Bit rate : 320 kb/s
Channel(s) : 2 channels
Channel layout : L R
Sampling rate : 48.0 kHz
Frame rate : 31.250 FPS (1536 SPF)
Compression mode : Lossy
Stream size : 235 MiB (6%)
Language : Russian
Service kind : Complete Main
Default : Yes
Forced : No
Text
ID : 3
Format : UTF-8
Codec ID : S_TEXT/UTF8
Codec ID/Info : UTF-8 Plain Text
Duration : 1 h 34 min
Bit rate : 106 b/s
Count of elements : 1401
Stream size : 73.5 KiB (0%)
Language : Russian
Default : Yes
Forced : No
--Релиз от: Flarrow Films
Примечание: Без интро Flarrow Films- - -
[korsars.pro].t32098.torrent 
Торрент: Зарегистрирован [ 2020-09-21 18:55 ] · 9319565FF1A8A1D18A13FE00DBFA55F6F2EC21FF

Скачать .torrent

Размер .torrent файла 19 KB

Статус: проверено
.torrent скачан: 23 раз
Размер: 3,67 GB
Правила
Похожие темы

Вы не зарегистрированы на нашем сайте. Вам доступна для скачивания только часть контента. Чтобы увидеть весь контент сайта, пожалуйста, зарегистрироруйтесь.

Дешевый и быстрый Сидбокс

Ключи и пин-коды

Игры, Кредитные карты, IP-телефония, Интернет провайдеры, Мобильная связь, Спутниковое ТВ

Электронные книги

Бизнес и экономика, Дом, быт, семья, досуг, Санкт-Петербург, Компьютеры и интернет, Наука и образование, Техническая литература, Юридическая литература

Цифровые товары

iTunes & App Store, Базы данных, Дизайн, Доступ к ресурсам, Kарты продления, ключи, Фотографии, Шаблоны для сайтов

Программное обеспечение

Безопасность, Игры, PC, Интернет, Мобильная связь, Программирование, Продвижение сайтов (SEO), Утилиты
У Вас отключен VIP статус, поэтому Вам показывается реклама на сайте. Вы можете поддержать наш ресурс и приобрести VIP статус, тем самым отключив показ рекламы на сайте, а ещё VIP пользователи получают возможность

смотреть аниме онлайн в HD качестве

(не распространяется на раздел Flarrow Films), а так же получить 5 инвайтов, которыми можно поделиться с друзьями или знакомыми.
Дешевый и быстрый Сидбокс

Ключи и пин-коды

Игры, Кредитные карты, IP-телефония, Интернет провайдеры, Мобильная связь, Спутниковое ТВ

Электронные книги

Бизнес и экономика, Дом, быт, семья, досуг, Санкт-Петербург, Компьютеры и интернет, Наука и образование, Техническая литература, Юридическая литература

Цифровые товары

iTunes & App Store, Базы данных, Дизайн, Доступ к ресурсам, Kарты продления, ключи, Фотографии, Шаблоны для сайтов

Программное обеспечение

Безопасность, Игры, PC, Интернет, Мобильная связь, Программирование, Продвижение сайтов (SEO), Утилиты
[Профиль] [ЛС]
Показать сообщения:    
Ответить на тему

Текущее время: 09-Дек 17:08

Часовой пояс: UTC + 4



Вы не можете начинать темы
Вы не можете отвечать на сообщения
Вы не можете редактировать свои сообщения
Вы не можете удалять свои сообщения
Вы не можете голосовать в опросах
Вы не можете прикреплять файлы к сообщениям
Вы можете скачивать файлы
Анализ сайта korsars.pro Яндекс.Метрика