Она видела небо / Sora no Aosa o Shiru Hito yo (2019) BDRip-HEVC 1080p от Fortuna.TV | Reanimedia

Ответить на тему
Статистика раздачи [Обновить пиров]
Размер:  4,94 GB   |    Зарегистрирован:  1 год 1 месяц   |    .torrent скачан:  16 раз
Раздают:  16  [  0 KB/s  ]   Качают:  4  [  0 KB/s  ]   Подробная статистика пиров
 
   
 
 
Автор Сообщение

loe3df ®

Оффлайн

Медали
VIPАктивный раздающий 1Активный раздающий 2Активный релизер Аниме (100)
Активный релизер Аниме (50)Орденосец 1 степени


Пол: Не указан

Стаж: 1 год 9 месяцев

Наличие запрета:

Сообщений: 360

Откуда: Die Welt von Hentai

Отдача: не определено

Загрузка: не определено

Нажми


Скачать Adguard бесплатно

Создавать темы 11-Сен-2020 20:59

[Цитировать]

Она видела небо / Sora no Aosa o Shiru Hito yo- Год выпуска: 2019
Страна: Япония
Жанр: драма
Продолжительность: ~ 01:47:00
Перевод: Дублированный | Reanimedia
Режиссёр: Тацуюки Нагаи
Субтитры: Отсутствуют-Рейтинг:
-Описание:
Родители Аои и Аканэ погибли 13 лет назад, и, чтобы заботиться о младшей сестре, Аканэ пришлось отказаться от планов переехать в Токио вместе со своим парнем Синносукэ. С тех пор Аои чувствует себя в долгу перед сестрой. Однажды известный исполнитель песен в жанре энка по имени Данкити приглашает Аои, только делающую первые шаги на музыкальном поприще, выступить на фестивале. В то же время Синносукэ после долгого отсутствия возвращается в родной город. Одновременно загадочным образом появляется Синно, который является Синносукэ тринадцатилетней давности, прибывшим из прошлого в настоящее. И Аои впервые влюбляется.-Качество: BDRip 1080p
Формат: MKV (HEVC)
Видео: 1920x1080, ~ 4 931 kb/s, 23.976 FPS. 10 bits
Аудио RUS: AAC LC, ~ 333 kb/s, 6 channels, 48.0 kHz
Аудио JAP: FLAC, ~ 1 335 kb/s, 2 channels, 48.0 kHz-

Скриншоты

MediaInfo

General
Unique ID : 337277784613303809515629977342370878012 (0xFDBD56A7B220C70ABC07F523795B923C)
Complete name : [FortunaTV] Sora no Aosa o Shiru Hito yo [BDRip 1080p x265 AAC].mkv
Format : Matroska
Format version : Version 4
File size : 4.94 GiB
Duration : 1 h 47 min
Overall bit rate mode : Variable
Overall bit rate : 6 598 kb/s
Encoded date : UTC 2020-09-20 17:58:19
Writing application : mkvmerge v50.0.0 ('Awakenings') 64-bit
Writing library : libebml v1.4.0 + libmatroska v1.6.2
Video
ID : 1
Format : HEVC
Format/Info : High Efficiency Video Coding
Format profile : Main 10@L4@Main
Codec ID : V_MPEGH/ISO/HEVC
Duration : 1 h 47 min
Bit rate : 4 931 kb/s
Width : 1 920 pixels
Height : 1 080 pixels
Display aspect ratio : 16:9
Frame rate mode : Constant
Frame rate : 23.976 (24000/1001) FPS
Color space : YUV
Chroma subsampling : 4:2:0
Bit depth : 10 bits
Bits/(Pixel*Frame) : 0.099
Stream size : 3.69 GiB (75%)
Writing library : x265 3.4+1-7b120308dc64:[Windows][MSVC 1926][64 bit] 10bit
Encoding settings : cpuid=1049583 / frame-threads=16 / numa-pools=24,24 / wpp / pmode / pme / no-psnr / no-ssim / log-level=2 / csv / csv-log-level=2 / input-csp=1 / input-res=1920x1080 / interlace=0 / total-frames=0 / level-idc=0 / high-tier=1 / uhd-bd=0 / ref=4 / no-allow-non-conformance / no-repeat-headers / annexb / no-aud / no-hrd / info / hash=0 / no-temporal-layers / open-gop / min-keyint=23 / keyint=240 / gop-lookahead=0 / bframes=6 / b-adapt=2 / b-pyramid / bframe-bias=0 / rc-lookahead=20 / lookahead-slices=6 / scenecut=40 / hist-scenecut=0 / radl=0 / no-splice / no-intra-refresh / ctu=64 / min-cu-size=8 / no-rect / no-amp / max-tu-size=32 / tu-inter-depth=2 / tu-intra-depth=2 / limit-tu=0 / rdoq-level=2 / dynamic-rd=0.00 / no-ssim-rd / signhide / no-tskip / nr-intra=0 / nr-inter=0 / no-constrained-intra / no-strong-intra-smoothing / max-merge=3 / limit-refs=1 / limit-modes / me=3 / subme=5 / merange=48 / temporal-mvp / no-frame-dup / no-hme / weightp / weightb / no-analyze-src-pics / deblock=1:-1 / no-sao / no-sao-non-deblock / rd=5 / selective-sao=0 / no-early-skip / no-rskip / no-fast-intra / no-tskip-fast / no-cu-lossless / b-intra / no-splitrd-skip / rdpenalty=0 / psy-rd=2.00 / psy-rdoq=4.00 / no-rd-refine / no-lossless / cbqpoffs=-2 / crqpoffs=-2 / rc=crf / crf=14.5 / qcomp=0.60 / qpstep=4 / stats-write=0 / stats-read=0 / ipratio=1.40 / pbratio=1.30 / aq-mode=4 / aq-strength=0.86 / no-cutree / zone-count=0 / no-strict-cbr / qg-size=32 / no-rc-grain / qpmax=69 / qpmin=0 / no-const-vbv / sar=1 / overscan=0 / videoformat=5 / range=0 / colorprim=1 / transfer=1 / colormatrix=1 / chromaloc=0 / display-window=0 / cll=0,0 / min-luma=0 / max-luma=1023 / log2-max-poc-lsb=8 / vui-timing-info / vui-hrd-info / slices=1 / no-opt-qp-pps / no-opt-ref-list-length-pps / no-multi-pass-opt-rps / scenecut-bias=0.05 / hist-threshold=0.01 / no-opt-cu-delta-qp / no-aq-motion / no-hdr10 / no-hdr10-opt / no-dhdr10-opt / no-idr-recovery-sei / analysis-reuse-level=0 / analysis-save-reuse-level=0 / analysis-load-reuse-level=0 / scale-factor=0 / refine-intra=0 / refine-inter=0 / refine-mv=1 / refine-ctu-distortion=0 / no-limit-sao / ctu-info=0 / no-lowpass-dct / refine-analysis-type=0 / copy-pic=1 / max-ausize-factor=1.0 / no-dynamic-refine / no-single-sei / hevc-aq / no-svt / no-field / qp-adaptation-range=4.00 / no-scenecut-aware-qpconformance-window-offsets / right=0 / bottom=0 / decoder-max-rate=0
Language : Japanese
Default : Yes
Forced : No
Color range : Limited
Color primaries : BT.709
Transfer characteristics : BT.709
Matrix coefficients : BT.709
Audio #1
ID : 2
Format : AAC LC
Format/Info : Advanced Audio Codec Low Complexity
Codec ID : A_AAC-2
Duration : 1 h 47 min
Bit rate : 333 kb/s
Channel(s) : 6 channels
Channel layout : C L R Ls Rs LFE
Sampling rate : 48.0 kHz
Frame rate : 46.875 FPS (1024 SPF)
Compression mode : Lossy
Delay relative to video : 20 ms
Stream size : 255 MiB (5%)
Title : Reanimedia
Language : Russian
Default : Yes
Forced : No
Audio #2
ID : 3
Format : FLAC
Format/Info : Free Lossless Audio Codec
Codec ID : A_FLAC
Duration : 1 h 47 min
Bit rate mode : Variable
Bit rate : 1 331 kb/s
Channel(s) : 2 channels
Channel layout : L R
Sampling rate : 48.0 kHz
Frame rate : 11.719 FPS (4096 SPF)
Bit depth : 24 bits
Compression mode : Lossless
Stream size : 1 021 MiB (20%)
Writing library : CUETools FLACCL 2.1.6
Language : Japanese
Default : No
Forced : No
Menu
00:00:00.000 : en:Avant
00:07:26.230 : en:Part A
00:15:37.846 : en:Part B
00:21:00.627 : en:Part C
00:31:13.989 : en:Part D
00:37:18.771 : en:Part E
00:43:02.823 : en:Part F
00:47:04.522 : en:Part G
00:52:48.950 : en:Part H
01:00:15.938 : en:Part I
01:10:34.139 : en:Part J
01:17:39.772 : en:Part K
01:22:10.042 : en:Part L
01:34:27.946 : en:Part M
01:38:23.473 : en:Part N
01:42:19.501 : en:End
Релиз от: Fortuna.TV
Ретайминг: Adventurer_Kun-20.09.2020 обновлено. Обновлён дубляж на шестиканальный

Релиз подготовлен Fortuna.TV

[korsars.pro].t31848.torrent 
Торрент: Зарегистрирован [ 2020-09-20 22:02 ] · CD734522482FE75B9728A8F89DC98BD6520E1A14

Скачать .torrent

Размер .torrent файла 13 KB

Статус: проверено
.torrent скачан: 16 раз
Размер: 4,94 GB
Правила
Woitler(21-Сен-20)
Похожие темы

Вы не зарегистрированы на нашем сайте. Вам доступна для скачивания только часть контента. Чтобы увидеть весь контент сайта, пожалуйста, зарегистрироруйтесь.

Дешевый и быстрый Сидбокс

Ключи и пин-коды

Игры, Кредитные карты, IP-телефония, Интернет провайдеры, Мобильная связь, Спутниковое ТВ

Электронные книги

Бизнес и экономика, Дом, быт, семья, досуг, Санкт-Петербург, Компьютеры и интернет, Наука и образование, Техническая литература, Юридическая литература

Цифровые товары

iTunes & App Store, Базы данных, Дизайн, Доступ к ресурсам, Kарты продления, ключи, Фотографии, Шаблоны для сайтов

Программное обеспечение

Безопасность, Игры, PC, Интернет, Мобильная связь, Программирование, Продвижение сайтов (SEO), Утилиты
У Вас отключен VIP статус, поэтому Вам показывается реклама на сайте. Вы можете поддержать наш ресурс и приобрести VIP статус, тем самым отключив показ рекламы на сайте, а ещё VIP пользователи получают возможность

смотреть аниме онлайн в HD качестве

(не распространяется на раздел Flarrow Films), а так же получить 5 инвайтов, которыми можно поделиться с друзьями или знакомыми.
Дешевый и быстрый Сидбокс

Ключи и пин-коды

Игры, Кредитные карты, IP-телефония, Интернет провайдеры, Мобильная связь, Спутниковое ТВ

Электронные книги

Бизнес и экономика, Дом, быт, семья, досуг, Санкт-Петербург, Компьютеры и интернет, Наука и образование, Техническая литература, Юридическая литература

Цифровые товары

iTunes & App Store, Базы данных, Дизайн, Доступ к ресурсам, Kарты продления, ключи, Фотографии, Шаблоны для сайтов

Программное обеспечение

Безопасность, Игры, PC, Интернет, Мобильная связь, Программирование, Продвижение сайтов (SEO), Утилиты


Последний раз редактировалось: loe3df (2021-10-22 22:06), всего редактировалось 3 раз(а)
[Профиль] [ЛС]

4udaki

Оффлайн

Медали


Пол: Мужской

Стаж: 6 лет 11 месяцев

Наличие запрета:

Сообщений: 11587

Откуда: korsars.pro

Отдача: 2 Mb/s

Загрузка: 20 Mb/s

Нажми


Скачать Adguard бесплатно

Создавать темы 11-Сен-2020 21:26 (спустя 26 минут)

[Цитировать]

Новые релизы - это конечно хорошо, я одобряю ag Но когда старые будешь обновлять? ak
[Профиль] [ЛС]

loe3df ®

Оффлайн

Медали
VIPАктивный раздающий 1Активный раздающий 2Активный релизер Аниме (100)
Активный релизер Аниме (50)Орденосец 1 степени


Пол: Не указан

Стаж: 1 год 9 месяцев

Наличие запрета:

Сообщений: 360

Откуда: Die Welt von Hentai

Отдача: не определено

Загрузка: не определено

Нажми


Скачать Adguard бесплатно

Создавать темы 11-Сен-2020 21:29 (спустя 3 минуты)

[Цитировать]

38794Новые релизы - это конечно хорошо, я одобряю ag Но когда старые будешь обновлять? ak
Завтра)
[Профиль] [ЛС]

4udaki

Оффлайн

Медали


Пол: Мужской

Стаж: 6 лет 11 месяцев

Наличие запрета:

Сообщений: 11587

Откуда: korsars.pro

Отдача: 2 Mb/s

Загрузка: 20 Mb/s

Нажми


Скачать Adguard бесплатно

Создавать темы 11-Сен-2020 21:46 (спустя 16 минут)

[Цитировать]

38795
38794Новые релизы - это конечно хорошо, я одобряю ag Но когда старые будешь обновлять? ak
Завтра)
Это радует ay
[Профиль] [ЛС]
Показать сообщения:    
Ответить на тему

Текущее время: 28-Окт 02:09

Часовой пояс: UTC + 4



Вы не можете начинать темы
Вы не можете отвечать на сообщения
Вы не можете редактировать свои сообщения
Вы не можете удалять свои сообщения
Вы не можете голосовать в опросах
Вы не можете прикреплять файлы к сообщениям
Вы можете скачивать файлы
Анализ сайта korsars.pro Яндекс.Метрика