Моя геройская академия. Фильм 2: Герои восстанут / Boku no Hero Academia the Movie 2: Heroes:Rising (2019) BDRip 1080p | D | Flarrow Films

Ответить на тему
Статистика раздачи [Обновить пиров]
Размер:  7,34 GB   |    Зарегистрирован:  2 месяца   |    .torrent скачан:  15 раз
Раздают:  13  [  0 KB/s  ]   Качают:  7  [  0 KB/s  ]   Подробная статистика пиров
 
   
 
 
Автор Сообщение

flarrowfilms ®

Оффлайн

Медали
VIPДруг трекераСупер Мега Контер Квейк


Пол: Не указан

Стаж: 7 месяцев 1 день

Наличие запрета:

Сообщений: 47

Отдача: 5 Mb/s

Загрузка: 5 Mb/s

Нажми


Скачать Adguard бесплатно

Создавать темы 26-Авг-2020 14:21

[Цитировать]

Информация о фильме
Название: Моя геройская академия. Фильм 2: Герои восстанут
Оригинальное название: Boku no Hero Academia the Movie 2: Heroes:Rising
Год выхода: 2019
Жанр: аниме, мультфильм, боевик, комедия, фантастика
Режиссер: Кэндзи Нагасаки
В ролях: Даики Ямасита, Юки Кадзи, Нобухико Окамото, Юити Накамура, Ёсио Иноэ, Юка Тэрасаки, Мио Имада, Киётака Фурусима, Тасуку Хатанака, Рё Хирохаси
О фильме:
17-летний Генри Пейдже - самопровозглашённый романтик, который еще никогда не влюблялся. Он ждёт свою единственную, а пока всё свободное время посвящает школьной газете. Однажды в школе появляется новенькая Грейс Таун, и Генри понимает, что в скором будущем его жизнь изменится навсегда.

Страна: Япония
Продолжительность: 01:43:59
Перевод: Дублированный (профессиональный) | Flarrow Films
Сэмпл: Скачать
Роли озвучивали: Семён Евсиков, Ахилл Намазов, Глеб Петров, Макс Маслов, Евгений Леонов, Лена Лунина, Егор Васильев, Кирилл Патрино, Рина Чернышова, Алёна Левичева, Лилия Сафина, Андрей Маслов, Анастасия Скачкова, Денис Кузьмичёв, Рута Новикова, Ашраф Мансур и Серёжа Пасякин
Файл
Формат: MKV
Кодек: MPEG-4 AVC
Качество: BDRip 1080p (локализованный видеоряд)
Видео: 1920х1080, ~ 9 721 kb/s, 23.976 FPS, 8 bits
Звук: AC-3, 384 kb/s, 6 channels, 48.0 kHz
Субтитры: русские (отключаемые UTF-8)-

MediaInfo

General
Unique ID : 92379152334962363391049063061620973249 (0x457F93DBC08B9FE3C3E05BA1401EDEC1)
Complete name : C:\Flarrow\Boku.no.Hero.Academia.the.Movie.2.Heroes.Rising.1080p.D.Flarrow.Films.mkv
Format : Matroska
Format version : Version 4
File size : 7.34 GiB
Duration : 1 h 43 min
Overall bit rate mode : Variable
Overall bit rate : 10.1 Mb/s
Encoded date : UTC 2020-08-25 15:37:43
Writing application : mkvmerge v32.0.0 ('Astral Progressions') 64-bit
Writing library : libebml v1.3.7 + libmatroska v1.5.0
Video
ID : 1
Format : AVC
Format/Info : Advanced Video Codec
Format profile : Main@L4.1
Format settings : CABAC / 2 Ref Frames
Format settings, CABAC : Yes
Format settings, Reference : 2 frames
Format settings, GOP : M=3, N=23
Codec ID : V_MPEG4/ISO/AVC
Duration : 1 h 43 min
Bit rate mode : Variable
Bit rate : 9 721 kb/s
Maximum bit rate : 12.0 Mb/s
Width : 1 920 pixels
Height : 1 080 pixels
Display aspect ratio : 16:9
Frame rate mode : Constant
Frame rate : 23.976 (24000/1001) FPS
Color space : YUV
Chroma subsampling : 4:2:0
Bit depth : 8 bits
Scan type : Progressive
Bits/(Pixel*Frame) : 0.196
Stream size : 7.06 GiB (96%)
Language : Russian
Default : Yes
Forced : No
Audio
ID : 2
ID : 2
Format : AC-3
Format/Info : Audio Coding 3
Commercial name : Dolby Digital
Codec ID : A_AC3
Duration : 1 h 43 min
Bit rate mode : Constant
Bit rate : 384 kb/s
Channel(s) : 6 channels
Channel layout : L R C LFE Ls Rs
Sampling rate : 48.0 kHz
Frame rate : 31.250 FPS (1536 SPF)
Compression mode : Lossy
Stream size : 286 MiB (4%)
Language : Russian
Service kind : Complete Main
Default : Yes
Forced : No
Text
ID : 3
Format : UTF-8
Codec ID : S_TEXT/UTF8
Codec ID/Info : UTF-8 Plain Text
Duration : 1 h 39 min
Bit rate : 90 b/s
Count of elements : 1409
Stream size : 65.7 KiB (0%)
Language : Russian
Default : Yes
Forced : No
--Релиз от: Flarrow Films
Примечание: Без интро Flarrow Films- -
[korsars.pro].t31431.torrent 
Торрент: Зарегистрирован [ 2020-08-26 14:21 ] · 8788793CDCD7996676CD6040C61292D1A7837A2D

Скачать .torrent

Размер .torrent файла 19 KB

Статус: проверено
.torrent скачан: 15 раз
Размер: 7,34 GB
Правила
deadmauvlad(26-Авг-20), Rentgen(26-Авг-20), 4udaki(26-Авг-20)
Похожие темы

[Профиль] [ЛС]

deadmauvlad

Оффлайн

Медали
VIP


Пол: Мужской

Стаж: 6 месяцев 29 дней

Наличие запрета:

Сообщений: 31

Откуда: Siberian Republic

Отдача: не определено

Загрузка: не определено

Нажми


Скачать Adguard бесплатно

Создавать темы 26-Авг-2020 14:53 (спустя 31 минута)

[Цитировать]

Хочу заценить озвучку можно семпл ? ah
[Профиль] [ЛС]

Rentgen

Оффлайн

Медали


Пол: Не указан

Стаж: 9 месяцев

Наличие запрета:

Сообщений: 63

Отдача: не определено

Загрузка: не определено

Нажми


Скачать Adguard бесплатно

Создавать темы 26-Авг-2020 15:41 (спустя 47 минут)

[Цитировать]

Фильм из разряда - приятно что он есть.
Но по факту - ничего не меняет и не добавляет в основной сюжет (круто, красиво и бесполезно).
З.ы. смотрел ещё в любительской озвучке (пересматривать вообще нет желания).


Последний раз редактировалось: Rentgen (2020-08-26 18:30), всего редактировалось 1 раз
[Профиль] [ЛС]

4udaki

Онлайн

Медали


Пол: Мужской

Стаж: 5 лет 11 месяцев

Наличие запрета:

Сообщений: 8177

Откуда: korsars.pro

Отдача: 2 Mb/s

Загрузка: 20 Mb/s

Нажми


Скачать Adguard бесплатно

Создавать темы 26-Авг-2020 18:10 (спустя 2 часа 29 минут)

[Цитировать]

38362Хочу заценить озвучку можно семпл ? ah
добавил сэмпл в описание
[Профиль] [ЛС]
Показать сообщения:    
Ответить на тему

Текущее время: 26-Окт 16:37

Часовой пояс: UTC + 4



Вы не можете начинать темы
Вы не можете отвечать на сообщения
Вы не можете редактировать свои сообщения
Вы не можете удалять свои сообщения
Вы не можете голосовать в опросах
Вы не можете прикреплять файлы к сообщениям
Вы можете скачивать файлы
Анализ сайта korsars.pro Яндекс.Метрика