Волшебный лагерь / Magic Camp (2020) WEB-DL 1080p | Flarrow Films

Ответить на тему
Статистика раздачи [Обновить пиров]
Размер:  6,02 GB   |    Зарегистрирован:  6 месяцев 18 дней   |    .torrent скачан:  5 раз
Раздают:  124  [  0 KB/s  ]   Качают:  12  [  0 KB/s  ]   Подробная статистика пиров
 
   
 
 
Автор Сообщение

flarrowfilms ®

Оффлайн

Медали
VIPДруг трекераСупер Мега Контер Квейк


Пол: Не указан

Стаж: 11 месяцев 13 дней

Наличие запрета:

Сообщений: 71

Отдача: 5 Mb/s

Загрузка: 5 Mb/s

Нажми


Скачать Adguard бесплатно

Создавать темы 20-Авг-2020 13:27

[Цитировать]

Информация о фильме
Название: Волшебный лагерь
Оригинальное название: Magic Camp
Год выхода: 2020
Жанр: фэнтези, комедия, семейный
Режиссер: Марк Уотерс
В ролях: Адам Дивайн, Элдис Ходж, Рошелль Эйтс, Джеффри Тэмбор, Мэдисон Бонтемпо, Розалинд Чао, Гиллиан Джейкобс, Джози Тота, Майкл Хичкок
О фильме:
Сюжет вращается вокруг Энди, бывшего фокусника, который по настоянию своего наставника вернулся в летний лагерь для начинающих магов, где он провёл всю юность, в надежде возобновить свою карьеру.

Страна: США
Продолжительность: 01:37:53
Перевод: Профессиональный (многоголосый, закадровый) | Flarrow Films
Роли озвучивали: Денис Кузьмичёв, Ахилл Намазов, Евгений Леонов, Рина Чернышова, Екатерина Луценко, Алина Лихачёва и Семён Евсиков
Файл
Формат: MKV
Кодек: MPEG-4 AVC
Качество: WEB-DL 1080p
Видео: 1920х1080, ~ 12.7 Mb/s, 23.976 FPS, 8 bits
Звук: AC-3, 320 kb/s, 2 channels, 48.0 kHz
Субтитры: русские (отключаемые UTF-8)-

MediaInfo

General
Unique ID : 240021713752577041463140688829876483289 (0xB4928026230C24DDD4ABE61AD72334D9)
Complete name : C:\Flarrow\Magic.Camp.2020.Flarrow.Films.mkv
Format : Matroska
Format version : Version 4
File size : 6.02 GiB
Duration : 1 h 37 min
Overall bit rate mode : Variable
Overall bit rate : 8 805 kb/s
Encoded date : UTC 2020-08-20 08:08:42
Writing application : mkvmerge v32.0.0 ('Astral Progressions') 64-bit
Writing library : libebml v1.3.7 + libmatroska v1.5.0
Cover : Yes
Attachments : small_cover.jpg / small_cover_land.jpg / cover.jpg / cover_land.jpg
Video
ID : 1
Format : AVC
Format/Info : Advanced Video Codec
Format profile : High@L4
Format settings : CABAC / 4 Ref Frames
Format settings, CABAC : Yes
Format settings, Reference : 4 frames
Codec ID : V_MPEG4/ISO/AVC
Duration : 1 h 37 min
Bit rate mode : Variable
Bit rate : 8 484 kb/s
Maximum bit rate : 12.7 Mb/s
Width : 1 920 pixels
Height : 1 080 pixels
Display aspect ratio : 16:9
Frame rate mode : Constant
Frame rate : 23.976 (24000/1001) FPS
Color space : YUV
Chroma subsampling : 4:2:0
Bit depth : 8 bits
Scan type : Progressive
Bits/(Pixel*Frame) : 0.171
Stream size : 5.80 GiB (96%)
Default : Yes
Forced : No
Color range : Limited
Color primaries : BT.709
Transfer characteristics : BT.709
Matrix coefficients : BT.709
Audio
ID : 2
Format : AC-3
Format/Info : Audio Coding 3
Commercial name : Dolby Digital
Codec ID : A_AC3
Duration : 1 h 37 min
Bit rate mode : Constant
Bit rate : 320 kb/s
Channel(s) : 2 channels
Channel layout : L R
Sampling rate : 48.0 kHz
Frame rate : 31.250 FPS (1536 SPF)
Compression mode : Lossy
Stream size : 224 MiB (4%)
Language : Russian
Service kind : Complete Main
Default : Yes
Forced : No
Text
ID : 3
Format : UTF-8
Codec ID : S_TEXT/UTF8
Codec ID/Info : UTF-8 Plain Text
Duration : 1 h 33 min
Bit rate : 134 b/s
Count of elements : 1538
Stream size : 92.2 KiB (0%)
Language : Russian
Default : Yes
Forced : No
--Релиз от: Flarrow Films
Примечание: Без интро Flarrow Films- -

[korsars.pro].t31284.torrent 
Торрент: Зарегистрирован [ 2020-08-20 15:45 ] · 2C07315618746B695351C4A833B6C2A30C2080A9

Скачать .torrent

Размер .torrent файла 15 KB

Статус: проверено
.torrent скачан: 5 раз
Размер: 6,02 GB
Правила
Похожие темы

Вы не зарегистрированы на нашем сайте. Вам доступна для скачивания только часть контента. Чтобы увидеть весь контент сайта, пожалуйста, зарегистрироруйтесь.

У Вас отключен VIP статус, поэтому Вам показывается реклама на сайте. Вы можете поддержать наш ресурс и приобрести VIP статус, тем самым отключив показ рекламы на сайте, а ещё VIP пользователи получают возможность

смотреть фильмы, сериалы и аниме онлайн в HD качестве

(не распространяется на раздел Flarrow Films), а так же получить 5 инвайтов, которыми можно поделиться с друзьями или знакомыми.
[Профиль] [ЛС]
Показать сообщения:    
Ответить на тему

Текущее время: 07-Мар 19:10

Часовой пояс: UTC + 4



Вы не можете начинать темы
Вы не можете отвечать на сообщения
Вы не можете редактировать свои сообщения
Вы не можете удалять свои сообщения
Вы не можете голосовать в опросах
Вы не можете прикреплять файлы к сообщениям
Вы можете скачивать файлы
Анализ сайта korsars.pro Яндекс.Метрика