Убойный ангел Докуро-тян OVA 01-02 / Bokusatsu Tenshi Dokuro-chan [01-06 из 06] (2005-2007) DVDRip от Deadmauvlad | L1 | Ancord

Ответить на тему
Статистика раздачи [Обновить пиров]
Размер:  2,07 GB   |    Зарегистрирован:  1 год 2 месяца   |    .torrent скачан:  10 раз
Раздают:  2  [  0 KB/s  ]   Качают:  1  [  0 KB/s  ]   Подробная статистика пиров
 
   
 
 
 
Автор Сообщение

4udaki ®

Оффлайн

Медали


Пол: Мужской

Стаж: 6 лет 11 месяцев

Наличие запрета:

Сообщений: 11563

Откуда: korsars.pro

Отдача: 2 Mb/s

Загрузка: 20 Mb/s

Нажми


Скачать Adguard бесплатно

Создавать темы 17-Авг-2020 05:00

[Цитировать]

Информация о фильме
Название: Убойный ангел Докуро-тян
Оригинальное название: Bokusatsu Tenshi Dokuro-chan
Год выхода: 2005-2007
Жанр: ужасы, комедия, романтика, мистика, этти
Режиссер: Цутому Мидзусима
В ролях: Лора Бэйли, Джонни Йонг Бош, Кайл Хеберт, Мела Ли, Уэнди Ли, Саэко Тиба, Сэм Ригел, Рэйко Такаги, Кирк Торнтон, Джули Энн Тейлор
О фильме:
Обычный школьник Сакура-кун даже не подозревает, что в будущем ему суждено изобрести революционную технологию вечной молодости, которая будет прекращать взросление девочек после того, как им исполнилось двенадцать лет (хотя, делая это открытие, он будет преследовать совсем иные цели...). Тем не менее это изобретение даст людям невиданные доселе возможности, что не по вкусу Небесам, решившим устранить зачинщика загодя с помощью посланных в прошлое ангелов. Однако одной из ангелов так полюбился симпатичный парнишка, что она решила попытаться изменить будущее, не убивая его. Так в квартире Сакуры поселяется очаровательная Докуро-тян, непосредственная и простодушная девочка с золотым нимбом над головкой. Беда только в том, что ангельски красивая гостья невероятно вспыльчива и в момент гнева, не задумываясь, использует свой Эскалиборг, гигантскую биту с шипами, умерщвляя рассердивших её самыми ужасными и кровавыми способами. Впрочем, достаточно короткого заклинания, и убитые тут же оживают... до очередной вспышки ярости Докуро-тян.
-Страна: Япония, Германия
Студия: Hal Film Maker, Mediaworks
Продолжительность: 06x ~00:26:00
Перевод #1 : Любительский (Одноголосый закадровый) (AniDub) |Ancord
Перевод #2 : Русские субтитры + Оригинал-Возрастное ограничение: Запрещено для детей
Файл
Контейнер / Кодек: AVI / XviD
Качество: DVDRip {Исходник DVD5 Japan}
Видео: 720x528 (4:3), 23.976 fps, 1458 Кбит/сек (0.160 bit/pixel)
Аудио #1: AC-3, 48,0 КГц, 2 ch, 192 Кбит/сек, CBR | | Ancord
Аудио #2: AC-3, 48,0 КГц, 2 ch, 192 Кбит/сек, CBR | | Орининал-Субтитры: Русские (Полные)

MediaInfo

Общее
Полное имя : D:АнимеУбойный.ангел.Докуро.тян.2005-2007.OVA.01-02.DVDRip.DeadmauvladУбойный.ангел.Докуро.тян.2005.L1.DVDRip.Deadmauvlad.OVA.01x01.avi
Формат : AVI
Формат/Информация : Audio Video Interleave
Размер файла : 353 Мбайт
Продолжительность : 26 м. 35 с.
Общий поток : 1856 Кбит/сек
Название фильма : Убойный.ангел.Докуро.тян.2005.L1.DVDRip.Deadmauvlad.OVA.01x01
Режиссёр : Encoder by Deadmauvlad
Жанр : Гуро, романтика, этти
Программа кодирования : VirtualDubMod 1.5.10.3 | www.virtualdub-fr.org || (build 2550/release)
Формат оригинала/Имя : Аниме
Авторское право : Encoder by Deadmauvlad
Примечание : Encoder by Deadmauvlad
Видео
Идентификатор : 0
Формат : MPEG-4 Visual
Профиль формата : Advanced Simple@L5
Настройки формата : BVOP1 / Custom Matrix
Параметр BVOP формата : 1
Параметр QPel формата : Нет
Параметр GMC формата : Без точки перехода
Параметр матрицы формата : Выборочная
Идентификатор кодека : XVID
Идентификатор кодека/Подсказка : XviD
Продолжительность : 26 м. 35 с.
Битрейт : 1458 Кбит/сек
Ширина : 720 пикселей
Высота : 528 пикселей
Соотношение сторон : 4:3
Частота кадров : 23,976 (24000/1001) кадра/сек
Цветовое пространство : YUV
Субдискретизация насыщенности : 4:2:0
Битовая глубина : 8 бит
Тип развёртки : Прогрессивная
Метод сжатия : С потерями
Бит/(Пиксели*Кадры) : 0.160
Размер потока : 277 Мбайт (79%)
Библиотека кодирования : XviD 73
Аудио #1
Идентификатор : 1
Формат : AC-3
Формат/Информация : Audio Coding 3
Коммерческое название : Dolby Digital
Идентификатор кодека : 2000
Продолжительность : 26 м. 35 с.
Вид битрейта : Постоянный
Битрейт : 192 Кбит/сек
Каналы : 2 канала
Channel layout : L R
Частота : 48,0 КГц
Частота кадров : 31,250 кадров/сек (1536 SPF)
Битовая глубина : 16 бит
Метод сжатия : С потерями
Размер потока : 36,5 Мбайт (10%)
Выравнивание : Разделение по промежуткам
Продолжительность промежутка : 42 мс. (1,00 видеокадр)
Время предзагрузки промежутка : 500 мс.
Аудио #2
Идентификатор : 2
Формат : AC-3
Формат/Информация : Audio Coding 3
Коммерческое название : Dolby Digital
Идентификатор кодека : 2000
Продолжительность : 26 м. 35 с.
Вид битрейта : Постоянный
Битрейт : 192 Кбит/сек
Каналы : 2 канала
Channel layout : L R
Частота : 48,0 КГц
Частота кадров : 31,250 кадров/сек (1536 SPF)
Битовая глубина : 16 бит
Метод сжатия : С потерями
Размер потока : 36,5 Мбайт (10%)
Выравнивание : Разделение по промежуткам
Продолжительность промежутка : 42 мс. (1,00 видеокадр)
Время предзагрузки промежутка : 500 мс.

Список Серий

OVA-1
01 (1-2). It's the Bludgeoning Angel! Dokuro-chan! / It's the Assassin from the Future! Dokuro-chan!
02 (3-4). It's the Romantic Cupid! Dokuro-chan! / It's New Cinema Paradise! Dokuro-chan!
03 (5-6). Field Trip! Dokuro-chan / Test of Courage Dokuro-chan!
04 (7-8). Zakuro-chan! Dokuro-chan! / Farewell! Dokuro-chan!
OVA-2
01 (1-2). Sketching Event! Dokuro-chan! / Bukibuki-goshigoshi Battle! Dokuro-chan!
02 (3-4). Accidents Happen in Closed Spaces, Dokuro-chan! / Valentine's Day Kiss! Dokuro-chan!

Хронология

#1 Убойный ангел Докуро-тян OVA-1 - OVA (4 эп.), адаптация серии романов, 2005 ✔ (Есть в раздаче)
#2 >>>Убойный ангел Докуро-тян OVA-2 - OVA (2 эп.), продолжение, 2007 ✔ (Есть в раздаче)
1. за исходник DVD5 (Японский) спасибо (Den4ik)
2. Пересведение озвучки Ancord by Deadmauvlad
3. Аниме похоже на (Счастливые лесные друзья / Happy Tree Friends). Кровь кишки мясо смерть мозги по стенам (Смотрите на свой страх и риск) Aga
Релиз by Deadmauvlad
-
[korsars.pro].t31204.torrent 
Торрент: Зарегистрирован [ 2020-08-17 05:00 ] · 7C5F38DBBD2C1ED3F3BAD05E4678EF969BB12779

Скачать .torrent

Размер .torrent файла 5 KB

Статус: проверено
.torrent скачан: 10 раз
Размер: 2,07 GB
Правила
deadmauvlad(17-Авг-20)
Похожие темы

Вы не зарегистрированы на нашем сайте. Вам доступна для скачивания только часть контента. Чтобы увидеть весь контент сайта, пожалуйста, зарегистрироруйтесь.

Дешевый и быстрый Сидбокс

Ключи и пин-коды

Игры, Кредитные карты, IP-телефония, Интернет провайдеры, Мобильная связь, Спутниковое ТВ

Электронные книги

Бизнес и экономика, Дом, быт, семья, досуг, Санкт-Петербург, Компьютеры и интернет, Наука и образование, Техническая литература, Юридическая литература

Цифровые товары

iTunes & App Store, Базы данных, Дизайн, Доступ к ресурсам, Kарты продления, ключи, Фотографии, Шаблоны для сайтов

Программное обеспечение

Безопасность, Игры, PC, Интернет, Мобильная связь, Программирование, Продвижение сайтов (SEO), Утилиты
У Вас отключен VIP статус, поэтому Вам показывается реклама на сайте. Вы можете поддержать наш ресурс и приобрести VIP статус, тем самым отключив показ рекламы на сайте, а ещё VIP пользователи получают возможность

смотреть аниме онлайн в HD качестве

(не распространяется на раздел Flarrow Films), а так же получить 5 инвайтов, которыми можно поделиться с друзьями или знакомыми.
Дешевый и быстрый Сидбокс

Ключи и пин-коды

Игры, Кредитные карты, IP-телефония, Интернет провайдеры, Мобильная связь, Спутниковое ТВ

Электронные книги

Бизнес и экономика, Дом, быт, семья, досуг, Санкт-Петербург, Компьютеры и интернет, Наука и образование, Техническая литература, Юридическая литература

Цифровые товары

iTunes & App Store, Базы данных, Дизайн, Доступ к ресурсам, Kарты продления, ключи, Фотографии, Шаблоны для сайтов

Программное обеспечение

Безопасность, Игры, PC, Интернет, Мобильная связь, Программирование, Продвижение сайтов (SEO), Утилиты
[Профиль] [ЛС]
Показать сообщения:    
Ответить на тему

Текущее время: 20-Окт 11:12

Часовой пояс: UTC + 4



Вы не можете начинать темы
Вы не можете отвечать на сообщения
Вы не можете редактировать свои сообщения
Вы не можете удалять свои сообщения
Вы не можете голосовать в опросах
Вы не можете прикреплять файлы к сообщениям
Вы можете скачивать файлы
Анализ сайта korsars.pro Яндекс.Метрика